2 сезон

iTunes

MVO

1

2 сезон

iTunes

iTunes

1 сезон

RePack

30

Ultimate

ВАЖНО

ИГРА 18+

pack

RePack

MK11
pack

Легкие деньги

RePack

jed

RePack

fifa19

RePack

RDR2

RePack

NEED FOR SPEED™ PAYBACK

4 сезон

9 сезон

Бесстыжие 9 сезон

Все сериалы

все сериалы на PB.wtf

RePack

FAR CRY 5

Anonymous, добрый вечер, мы не успеваем собрать деньги на оплату серверов за декабрь и январь, помогите нам пожалуйста в это трудное время. В качестве благодарности мы отключим Вам всю рекламу на сайте (укажите свой ник в строку Ваше имя)!

×
  
Magnet ссылка

Убей своих любимых / Kill Your Darlings (Джон Крокидас / John Krokidas) [2013, США, драма, мелодрама, HDRip, Профессиональный многоголосый [Лицензия] pb.wtf

Убей своих любимых через торрент pb.wtf

Размер: 1.37 GB | Добавлен: 6 лет 2 мес. назад | Торрент скачан:267 раз
Скачать  

28-10-2014 18:38 Убей своих любимых Скачать торрент  

Убей своих любимых / Kill Your Darlings

Год выпуска: 2013
Страна: США
Жанр: драма, мелодрама
Продолжительность: 01:42:44
Перевод: Профессиональный многоголосый [Лицензия]
Режиссер: Джон Крокидас / John Krokidas
В ролях: Дэниэл Рэдклифф (Allen Ginsberg), Дэйн ДеХаан (Lucien Carr), Бен Фостер (William Burroughs), Майкл С. Холл (David Kammerer), Джек Хьюстон (Jack Kerouac), Дженнифер Джейсон Ли (Naomi Ginsberg), Элизабет Олсен (Edie Parker), Дэвид Кросс (Louis Ginsberg), Джон Каллам (Professor Steeves), Бренда Веле (Permissions Librarian), Эрин Майя Дарк (Gwendolyn), Крэйг Честер (Businessman)
Описание:
Убийство в 1944 г. сводит воедино великих писателей поколения битников: Аллена Гинзберга, Джека Керуака и Уильяма Берроуза.
Рейтинг:

MPAA: R - Лицам до 17 лет обязательно присутствие взрослого
Качество: HDRip
Формат: AVI
Видео кодек: XviD
Аудио кодек:AC3
Видео: XviD, 720x304 (2.35:1), 1447 kbps, 23,976 fps, 0,276 bpp
Аудио: AC3 / 5.1 / 48 kHz / 448 kbps / 16 bit

General
Complete name : D:\Торенты\Ubey.Svoih.Lubimih.2013.P.HDRip.1400MB.avi
Format : AVI
Format/Info : Audio Video Interleave
File size : 1.37 GiB
Duration : 1h 42mn
Overall bit rate : 1 905 Kbps
Writing application : VirtualDubMod 1.5.10.2 (build 2540/release)
Writing library : VirtualDubMod build 2540/release

Video
ID : 0
Format : MPEG-4 Visual
Format profile : Advanced Simple@L5
Format settings, BVOP : 2
Format settings, QPel : No
Format settings, GMC : No warppoints
Format settings, Matrix : Custom
Codec ID : XVID
Codec ID/Hint : XviD
Duration : 1h 42mn
Bit rate : 1 448 Kbps
Width : 720 pixels
Height : 304 pixels
Display aspect ratio : 2.35:1
Frame rate : 23.976 fps
Color space : YUV
Chroma subsampling : 4:2:0
Bit depth : 8 bits
Scan type : Progressive
Compression mode : Lossy
Bits/(Pixel*Frame) : 0.276
Stream size : 1.04 GiB (76%)
Writing library : XviD 1.2.1 (UTC 2008-12-04)

Audio
ID : 1
Format : AC-3
Format/Info : Audio Coding 3
Mode extension : CM (complete main)
Codec ID : 2000
Duration : 1h 42mn
Bit rate mode : Constant
Bit rate : 448 Kbps
Channel(s) : 6 channels
Channel positions : Front: L C R, Side: L R, LFE
Sampling rate : 48.0 KHz
Bit depth : 16 bits
Compression mode : Lossy
Stream size : 329 MiB (24%)
Alignment : Split accross interleaves
Interleave, duration : 42 ms (1.00 video frame)
Interleave, preload duration : 500 ms
pb.wtf



Скачать Убей своих любимых через торрент http://s019.radikal.ru/i635/1403/39/24e7db846d45.jpg Скачать фильм Убей своих любимых через торрент бесплантно в хорошем качестве Описание: Убийство в 1944 г. сводит воедино великих писателей поколения битников: Аллена Гинзберга, Джека Керуака и Уильяма ... 10 10 9
Торрент: Зарегистрирован [2014-10-28 18:38] · скачан: 267 раз
Статус: √ проверено
Размер: 1.37 GB
Как cкачать? Как скачать Убей своих любимых через торрент | UTorrent

% Раздел Тема Автор DL S | L
Фильмы 2013 [DVDrip, WEB-DLRip, HDrip] [ 748 MB ] Убей своих любимых / Kill Your Darlings [2013 BDRip-AVC] MVO sokol_ok Скачать
3 | 0
Фильмы 2013 [DVDrip, WEB-DLRip, HDrip] [ 1.46 GB ] Убей своих любимых / Kill Your Darlings [2013 BDRip-AVC] MVO sokol_ok Скачать
2 | 0
Фильмы (DVD фильмы) [ 5.35 GB ] Убей своих любимых / Kill Your Darlings [2013 DVD9] R5 voovaz Скачать
1 | 0
Фильмы [HD 720p, 1080p] (Хороший звук DUB, MVO) [ 7.75 GB ] Убей своих любимых / Kill Your Darlings [2013 BDRip 1080p многоголосый [] RUS Transfer _denis_100 Скачать
1 | 0
Фильмы [HD 720p, 1080p] (Хороший звук DUB, MVO) [ 6.03 GB ] Убей своих любимых / Kill Your Darlings [2013 BDRip 720p многоголосый [] Ворон Скачать
1 | 0
Фильмы 2013 [DVDrip, WEB-DLRip, HDrip] [ 2.05 GB ] Убей своих любимых / Kill Your Darlings [2013 HDRip многоголосый] кэп Скачать
1 | 0
Фильмы 2013 (Звук TS, Cam, VO, DVO) [ 1.37 GB ] Убей своих любимых / Kill Your Darlings [2013 HDRip Любительский двухголосый][Jetvis Studio] Anonymous Скачать
1 | 0


Последний раз редактировалось: Ворон (2014-10-28 19:33), всего редактировалось 1 раз

28-11-2019 20:33  

Отключить всю рекламу на сайте

28-10-2014 18:49 Убей своих любимых Скачать торрент  

Когда 720? Дубляж будет?pb.wtf



28-10-2014 19:35 Убей своих любимых Скачать торрент  

19-11-2014 15:11 Убей своих любимых Скачать торрент  

Фильм нужно было назвать по другому:"Убей полтора часа в никуда"... pb.wtf



    Дорогой пользователь! Огромная просьба, поблагодарите релизера, оцените раздачу и оставьте свои комментарий, если Вы скачали Убей своих любимых через торрент бесплатно! Внесите свою лепту в развитие PiratBit!
    Комментировать посты могут только пользователи прошедшие не сложную регистрацию
    Показать сообщения:    

    Убей своих любимых через торрент
    Скачать бесплатно Убей своих любимых
    Убей своих любимых скачать торрент
    Убей своих любимых смотреть онлайн
    Cкачать фильм Убей своих любимых бесплатно
    Убей своих любимых скачать торрент в хорошем качестве
    Убей своих любимых смотреть онлайн бесплатно в хорошем качестве


    Вы не можете начинать темы
    Вы не можете отвечать на сообщения
    Вы не можете редактировать свои сообщения
    Вы не можете удалять свои сообщения
    Вы не можете голосовать в опросах
    Вы не можете прикреплять файлы к сообщениям
    Вы можете скачивать файлы