Ссылка на приватное зеркало нашего сайта всего за 1$. Внимание количество ограничено!!!

2 сезон

iTunes

1 сезон

1

iTunes

iTunes

iTunes

1 сезон

RePack

30

ИГРА 18+

pack

ВАЖНО

!!Акция!!

Alien_RageХит недели

RePack

MK11
pack

Забери бонус

RePack

jed

!!Акция!!

Alien_Rage

RePack

fifa19

RePack

Assassins Creed: Odyssey

RePack

NEED FOR SPEED™ PAYBACK

4 сезон

9 сезон

Бесстыжие 9 сезон

Все сериалы

все сериалы на PB.wtf

RePack

FAR CRY 5
  

Привязанные к дому / Housebound (Джерард Джонстоун / Gerard Johnstone) [2014, Новая Зеландия, ужасы, триллер, комедия, WEB-DLRip, Любительский (одноголосый)[datynet] pb.wtf

Привязанные к дому через торрент pb.wtf

Размер: 1.34 GB | Добавлен: 5 лет 11 мес. назад | Торрент скачан:257 раз
Скачать  

28-10-2014 18:41 Привязанные к дому Скачать торрент  

Привязанные к дому / Housebound

Год выпуска: 2014
Страна: Новая Зеландия
Жанр: ужасы, триллер, комедия
Продолжительность: 01:46:46
Перевод: Любительский (одноголосый)[datynet]
Режиссер: Джерард Джонстоун / Gerard Johnstone
В ролях: Моргана О’Рейли (Kylie Bucknell), Рима Те Вьята (Miriam Bucknell), Glen-Paul Waru (Amos), Росс Харпер (Graeme), Камерон Родс (Dennis), Ryan Lampp (Eugene), Мик Иннес (Kraglund), Брюс Хопкинс (Officer Carson), Уоллес Чепмен (Hollis), Миллен Бейрд (Officer Grayson), Дэвид Ван Хорн (Justin), Nikki Si'Ulepa (Leslie)
Описание:
Кайли Бакнелл вынуждена вернуться в фамильный особняк после того, как суд приговорил ее к заключению под домашний арест. Ее наказание за неудачную попытку ограбить банкомат осложняется еще и тем, что Кайли вынуждена жить со своей безумной мамой Мириам, которая убеждена, что особняк кишит приведениями...
Рейтинг:

IMDB рейтинг: 7,1/10 (1301 голосов)
Качество: WEB-DLRip
Формат: AVI
Видео кодек: XviD
Аудио кодек:MP3
Видео: XviD, 720x304 (2.35:1), 1594 kbps, 25 fps, 0,291 bpp
Аудио: MP3 / 2.0 / 44 kHz / 192 kbps /

General
Complete name : D:\Торенты\Housebound.2014.HDRip.avi
Format : AVI
Format/Info : Audio Video Interleave
File size : 1.34 GiB
Duration : 1h 46mn
Overall bit rate : 1 796 Kbps
Writing library : VirtualDub build 34753/release

Video
ID : 0
Format : MPEG-4 Visual
Format profile : Advanced Simple@L5
Format settings, BVOP : 2
Format settings, QPel : No
Format settings, GMC : No warppoints
Format settings, Matrix : Default (H.263)
Muxing mode : Packed bitstream
Codec ID : XVID
Codec ID/Hint : XviD
Duration : 1h 46mn
Bit rate : 1 594 Kbps
Width : 720 pixels
Height : 304 pixels
Display aspect ratio : 2.35:1
Frame rate : 25.000 fps
Color space : YUV
Chroma subsampling : 4:2:0
Bit depth : 8 bits
Scan type : Progressive
Compression mode : Lossy
Bits/(Pixel*Frame) : 0.291
Stream size : 1.19 GiB (89%)
Writing library : XviD 64

Audio
ID : 1
Format : MPEG Audio
Format version : Version 1
Format profile : Layer 3
Codec ID : 55
Codec ID/Hint : MP3
Duration : 1h 46mn
Bit rate mode : Constant
Bit rate : 192 Kbps
Channel(s) : 2 channels
Sampling rate : 44.1 KHz
Compression mode : Lossy
Stream size : 147 MiB (11%)
Alignment : Split accross interleaves
Interleave, duration : 40 ms (1.00 video frame)
Interleave, preload duration : 500 ms
pb.wtf



Скачать Привязанные к дому через торрент http://i64.fastpic.ru/big/2014/1028/9b/0bad730ba94815b266129422dc77dd9b.jpg Скачать фильм Привязанные к дому через торрент бесплантно в хорошем качестве Описание: Кайли Бакнелл вынуждена вернуться в фамильный особняк после того, как суд приговорил ее к заключению под домашний арест. Ее ... 9.3 10 6
Торрент: Зарегистрирован [2014-10-28 18:41] · скачан: 257 раз
Статус: T временная
Размер: 1.34 GB
Как cкачать? Как скачать Привязанные к дому через торрент | qTorrent

% Раздел Тема Автор DL S | L
Фильмы [HD 720p, 1080p] (Хороший звук DUB, MVO) [ 8.56 GB ] Привязанные к дому / Housebound [2014 BDRip 1080p by msltel] MVO AVO msltel Скачать
1 | 0
Фильмы [HD 720p, 1080p] (Хороший звук DUB, MVO) [ 3.33 GB ] Привязанные к дому / Housebound [2014 BDRip 720p by msltel] MVO AVO msltel Скачать
1 | 0
Фильмы [HD 720p, 1080p] (Хороший звук DUB, MVO) [ 2.91 GB ] Привязанные к дому / Housebound [2014 Новая Зеландия BDRip 720p] MVO + AVO [А. Матвеев] sokol_ok Скачать
2 | 0
Фильмы 2014 [DVDrip, WEB-DLRip, HDrip] [ 1.46 GB ] Привязанные к дому / Housebound [2014 Новая Зеландия BDRip-AVC] MVO sokol_ok Скачать
2 | 0
Фильмы 2014 [DVDrip, WEB-DLRip, HDrip] [ 744 MB ] Привязанные к дому / Housebound [2014 Новая Зеландия BDRip-AVC] MVO sokol_ok Скачать
2 | 0
Фильмы с авторской озвучкой [ 2.18 GB ] Привязанные к дому / Housebound [2014 BDRip-AVC] AVO potroks Скачать
1 | 0

28-11-2019 20:33  

Отключить всю рекламу на сайте

    Дорогой пользователь! Огромная просьба, поблагодарите релизера, оцените раздачу и оставьте свои комментарий, если Вы скачали Привязанные к дому через торрент бесплатно! Внесите свою лепту в развитие PiratBit!
    Комментировать посты могут только пользователи прошедшие не сложную регистрацию
    Показать сообщения:    

    Привязанные к дому через торрент
    Скачать бесплатно Привязанные к дому
    Привязанные к дому скачать торрент
    Привязанные к дому смотреть онлайн
    Cкачать фильм Привязанные к дому бесплатно
    Привязанные к дому скачать торрент в хорошем качестве
    Привязанные к дому смотреть онлайн бесплатно в хорошем качестве


    Вы не можете начинать темы
    Вы не можете отвечать на сообщения
    Вы не можете редактировать свои сообщения
    Вы не можете удалять свои сообщения
    Вы не можете голосовать в опросах
    Вы не можете прикреплять файлы к сообщениям
    Вы можете скачивать файлы