Ссылка на приватное зеркало нашего сайта всего за 1$. Внимание количество ограничено!!!

2 сезон

iTunes

1 сезон

1

iTunes

iTunes

iTunes

1 сезон

RePack

30

ИГРА 18+

pack

ВАЖНО

!!Акция!!

Alien_RageХит недели

RePack

MK11
pack

Забери бонус

RePack

jed

!!Акция!!

Alien_Rage

RePack

fifa19

RePack

Assassins Creed: Odyssey

RePack

NEED FOR SPEED™ PAYBACK

4 сезон

9 сезон

Бесстыжие 9 сезон

Все сериалы

все сериалы на PB.wtf

RePack

FAR CRY 5
  

Самый опасный человек / A Most Wanted Man (Антон Корбейн) [2014 г., триллер, BDRip 720p, Дубляж, iTunes Russia] pb.wtf

Самый опасный человек через торрент pb.wtf

Размер: 8.43 GB | Добавлен: 5 лет 11 мес. назад | Торрент скачан:106 раз
Скачать  

28-10-2014 18:47 Самый опасный человек Скачать торрент  

Самый опасный человек / A Most Wanted Man
Год выпуска: 2014
Страна: Великобритания, США, Германия
Жанр: триллер
Продолжительность: 02:02:23
Перевод: Дубляж, iTunes Russia
Субтитры: Английские

Режиссер: Антон Корбейн
Продюссер: Андреа Колдервуд, Саймон Корнвэлл, Стивен Корнуэлл
Сценарий: Эндрю Бовелл, Джон ле Карре
Бюджет: $17 220 643
Премьера в мире: 22 июля 2014

IMDB 7.20 (13 382)


В ролях: Филип Сеймур Хоффман, Рэйчел МакАдамс, Уиллем Дефо, Григорий Добрыгин, Нина Хосс, Робин Райт, Райнер Бок, Хомаюн Эршади, Мехди Дехби, Даниэль Брюль, Анатолий Хропов

Описание: Каждая война начинается со страха. Каждое предательство начинается с доверия. Глава секретного подразделения разведки получает задание найти опасного международного беглеца Ису Карпова, которого из симпатии укрывает молодая девушка-адвокат. Когда в погоню вступают разведки других стран, начинается большая шпионская игра, в которой любой может оказаться наживкой или акулой. А национальная безопасность нередко зависит от простых человеческих чувств.

Доп. информация: Сохранены оригинальные чаптеры, как на BluRay

Качество: BDRip 720p
Формат: MKV
Видео кодек: AVC
Аудио кодек: AC3 / DTS
Видео: MPEG-4 AVC, 7771 Кбит/с, 1280x544, 23.976 fps
Аудио#1: Russian: 48 kHz, AC3 Dolby Digital, 3/2 (L,C,R,l,r) + LFE ch, ~384 kbps |Дубляж, iTunes Russia|
Аудио#2: English: 48 kHz, DTS, 3/2 (L,C,R,l,r) + LFE ch, ~1510 kbps
General
Unique ID : 221567611819600406537898500059007271195 (0xA6B05EAD3E2084E191084D8C924FC11B)
Complete name : /home/sb1855/files/A.Most.Wanted.Man.2014.720p.BluRay.Rus.Eng.x264-KinoRay.mkv
Format : Matroska
Format version : Version 2
File size : 8.43 GiB
Duration : 2h 2mn
Overall bit rate : 9 861 Kbps
Movie name : A.Most.Wanted.Man.2014.720p.BluRay.DTS.x264-HDAccess
Encoded date : UTC 2014-10-28 13:00:58
Writing application : mkvmerge v3.3.0 ('Language') built on Mar 24 2010 14:59:24
Writing library : libebml v0.8.0 + libmatroska v0.9.0
DURATION : 02:02:23.595000000
NUMBER_OF_FRAMES : 688462
NUMBER_OF_BYTES : 1385185544
_STATISTICS_WRITING_APP : mkvmerge v7.2.0 ('On Every Street') 64bit built on Sep 13 2014 15:52:10
_STATISTICS_WRITING_DATE_UTC : 2014-10-22 16:09:24
_STATISTICS_TAGS : BPS DURATION NUMBER_OF_FRAMES NUMBER_OF_BYTES

Video
ID : 1
Format : AVC
Format/Info : Advanced Video Codec
Format profile : High@L4.1
Format settings, CABAC : Yes
Format settings, ReFrames : 12 frames
Codec ID : V_MPEG4/ISO/AVC
Duration : 2h 2mn
Bit rate : 7 771 Kbps
Width : 1 280 pixels
Height : 544 pixels
Display aspect ratio : 2.35:1
Frame rate : 23.976 fps
Color space : YUV
Chroma subsampling : 4:2:0
Bit depth : 8 bits
Scan type : Progressive
Bits/(Pixel*Frame) : 0.465
Stream size : 6.64 GiB (79%)
Writing library : x264 core 142 r2479kMod dd79a61
Encoding settings : cabac=1 / ref=12 / deblock=1:-3:-3 / analyse=0x3:0x133 / me=umh / subme=10 / psy=1 / fade_compensate=0.00 / psy_rd=1.00:0.00 / mixed_ref=1 / me_range=24 / chroma_me=1 / trellis=2 / 8x8dct=1 / cqm=0 / deadzone=21,11 / fast_pskip=0 / chroma_qp_offset=-2 / threads=18 / lookahead_threads=4 / sliced_threads=0 / nr=0 / decimate=0 / interlaced=0 / bluray_compat=0 / constrained_intra=0 / fgo=0 / bframes=10 / b_pyramid=2 / b_adapt=2 / b_bias=0 / direct=3 / weightb=1 / open_gop=0 / weightp=2 / keyint=250 / keyint_min=23 / scenecut=40 / intra_refresh=0 / rc=crf / mbtree=0 / crf=15.0000 / qcomp=0.75 / qpmin=0 / qpmax=69 / qpstep=4 / ip_ratio=1.20 / pb_ratio=1.20 / aq=1:0.80
Language : English
Default : No
Forced : No
DURATION : 02:02:23.587000000
NUMBER_OF_FRAMES : 176070
NUMBER_OF_BYTES : 7298181727
_STATISTICS_WRITING_APP : mkvmerge v7.2.0 ('On Every Street') 64bit built on Sep 13 2014 15:52:10
_STATISTICS_WRITING_DATE_UTC : 2014-10-22 16:09:24
_STATISTICS_TAGS : BPS DURATION NUMBER_OF_FRAMES NUMBER_OF_BYTES

Audio #1
ID : 2
Format : AC-3
Format/Info : Audio Coding 3
Mode extension : CM (complete main)
Format settings, Endianness : Big
Codec ID : A_AC3
Duration : 2h 2mn
Bit rate mode : Constant
Bit rate : 384 Kbps
Channel(s) : 6 channels
Channel positions : Front: L C R, Side: L R, LFE
Sampling rate : 48.0 KHz
Bit depth : 16 bits
Compression mode : Lossy
Stream size : 336 MiB (4%)
Title : AC3 5.1 @ 384 kbps - Dub, iTunes Russia
Language : Russian
Default : Yes
Forced : No

Audio #2
ID : 3
Format : DTS
Format/Info : Digital Theater Systems
Codec ID : A_DTS
Duration : 2h 2mn
Bit rate mode : Constant
Bit rate : 1 510 Kbps
Channel(s) : 6 channels
Channel positions : Front: L C R, Side: L R, LFE
Sampling rate : 48.0 KHz
Bit depth : 24 bits
Compression mode : Lossy
Delay relative to video : 11ms
Stream size : 1.29 GiB (15%)
Title : DTS 5.1 @ 1510 kbps
Language : English
Default : No
Forced : No

Text #1
ID : 4
Format : PGS
Codec ID : S_HDMV/PGS
Codec ID/Info : The same subtitle format used on BDs/HD-DVDs
Language : English
Default : No
Forced : No

Text #2
ID : 5
Format : PGS
Codec ID : S_HDMV/PGS
Codec ID/Info : The same subtitle format used on BDs/HD-DVDs
Language : English
Default : No
Forced : No

Menu
00:00:00.000 : en:00:00:00.000
00:08:26.256 : en:00:08:26.256
00:15:38.771 : en:00:15:38.771
00:24:58.872 : en:00:24:58.872
00:30:40.047 : en:00:30:40.047
00:37:54.147 : en:00:37:54.147
00:47:22.381 : en:00:47:22.381
00:52:45.079 : en:00:52:45.079
01:02:10.602 : en:01:02:10.602
01:09:44.430 : en:01:09:44.430
01:16:51.816 : en:01:16:51.816
01:25:22.826 : en:01:25:22.826
01:32:06.229 : en:01:32:06.229
01:40:02.914 : en:01:40:02.914
01:49:38.322 : en:01:49:38.322
01:55:53.029 : en:01:55:53.029

pb.wtf



Скачать Самый опасный человек через торрент http://i63.fastpic.ru/big/2014/1028/a8/93b421ec8b2e68c2b49fe38e9f1f16a8.png Скачать фильм Самый опасный человек через торрент бесплантно в хорошем качестве Описание: Каждая война начинается со страха. Каждое предательство начинается с доверия. Глава секретного подразделения разведки получает ... 10 10 6
Info! Золотая раздача, скачанное не засчитывается.
Торрент: Зарегистрирован [2014-10-28 18:47] · скачан: 106 раз
Статус: √ проверено
Размер: 8.43 GB
Как cкачать? Как скачать Самый опасный человек через торрент | qTorrent

% Раздел Тема Автор DL S | L
Фильмы 2014 [DVDrip, WEB-DLRip, HDrip] [ 2.17 GB ] Самый опасный человек / A Most Wanted Man [2014 Германия BDRip AVC Ворон Скачать
1 | 0
Фильмы 2014 [DVDrip, WEB-DLRip, HDrip] [ 1.37 GB ] Самый опасный человек / A Most Wanted Man [2014 Германия HDRip Ворон Скачать
1 | 0
Фильмы [HD 720p, 1080p] (Хороший звук DUB, MVO) [ 6.68 GB ] Самый опасный человек / A Most Wanted Man [2014 Германия BDRip 720p] [ R5] + Original + Sub от R.G. PiratFilms Messa-fan Скачать
1 | 0
Фильмы (Blu-ray, BD-Remux, HDDVD) [ 27.35 GB ] Самый опасный человек / A Most Wanted Man [2014 BDRemux / DUB Ворон Скачать
1 | 0
Наши фильмы (DVD фильмы) [ 4.3 GB ] Самый опасный человек / A Most Wanted Man [2014 DVD5] R5 voovaz Скачать
1 | 0
Фильмы [HD 720p, 1080p] (Хороший звук DUB, MVO) [ 11.51 GB ] Самый опасный человек / A Most Wanted Man [2014 Германия BDRip 1080p] [ R5] + Original + Sub от R.G. PiratFilms Messa-fan Скачать
1 | 0
Фильмы 2014 [DVDrip, WEB-DLRip, HDrip] [ 2.05 GB ] Самый опасный человек / A Most Wanted Man [2014 Германия HDRip - / ] _KaisiK_ Скачать
1 | 0

28-11-2019 20:33  

Отключить всю рекламу на сайте

    Дорогой пользователь! Огромная просьба, поблагодарите релизера, оцените раздачу и оставьте свои комментарий, если Вы скачали Самый опасный человек через торрент бесплатно! Внесите свою лепту в развитие PiratBit!
    Комментировать посты могут только пользователи прошедшие не сложную регистрацию
    Показать сообщения:    

    Самый опасный человек через торрент
    Скачать бесплатно Самый опасный человек
    Самый опасный человек скачать торрент
    Самый опасный человек смотреть онлайн
    Cкачать фильм Самый опасный человек бесплатно
    Самый опасный человек скачать торрент в хорошем качестве
    Самый опасный человек смотреть онлайн бесплатно в хорошем качестве


    Вы не можете начинать темы
    Вы не можете отвечать на сообщения
    Вы не можете редактировать свои сообщения
    Вы не можете удалять свои сообщения
    Вы не можете голосовать в опросах
    Вы не можете прикреплять файлы к сообщениям
    Вы можете скачивать файлы