Ссылка на приватное зеркало всего за 1$. Внимание количество ограничено!!!

OK

1+1

iTunes

мы

OK

1

WEB-DLRip

Джокер

Пифагор

Ведьмак / The Witcher сериал

Лицензия

ПШазам

ОК

Оно 2

iTunes

30
pack

Вам бонус

ВАЖНО

!!Акция!!

Alien_RageХит недели

RePack

Resident Evil 21

ИГРА 18+

pack

RePack

jed

!!Акция!!

Alien_Rage

RePack

fifa19

RePack

Assassins Creed: Odyssey

RePack

NEED FOR SPEED™ PAYBACK

4 сезон

9 сезон

Бесстыжие 9 сезон

Все сериалы

все сериалы на PB.wtf

RePack

FAR CRY 5
  

Принц Ахмед и тайна астролога / Ahmed, el principe de la Alhambra (Хуан Батиста Берасатеги / Juan Bautista Berasategi) [1998, Испания, мультфильм, семейный, DVD5,Профессиональный многоголосый] pb.wtf

Принц Ахмед и тайна астролога через торрент pb.wtf

Размер: 3.29 GB | Добавлен: 5 лет 2 мес. назад | Торрент скачан:12 раз
Скачать  

28-10-2014 19:42 Принц Ахмед и тайна астролога Скачать торрент  

Принц Ахмед и тайна астролога / Ahmed, el principe de la Alhambra
Год выпуска: 1998
Страна: Испания
Жанр: мультфильм, семейный

Продолжительность: 01:04:17
Перевод: Профессиональный многоголосый
Субтитры: Нет
Режиссер: Хуан Батиста Берасатеги / Juan Bautista Berasategi
Релиз на DVD: 12 марта 2009, «Columbia/Sony»
В ролях: Xebe Díez (Bonabben, озвучка), Eduardo Gorriño (Yusuf, озвучка), Тксема Москосо (Halcón, озвучка), Мирен Аранбуру (Ahmed niño, озвучка), Felipe Barandiarán (Título / Heraldo, озвучка), Peio Artetxe (Buho, озвучка), Дж.М. Гоикоетксея (Guardia 1, озвучка), Микель Мендисабаль (Guardia 2, озвучка), Ициар Гомес (Mujer 1, озвучка), Dolores Díaz de Mendívil (Mujer 2, озвучка), Loinaz Jáuregui (Mujer 3 / Paloma, озвучка), José Francisco Jáuregui (Palomo / Niño, озвучка)
Описание:
Весна - волшебная пора, когда поют птицы и сердца. И лишь юный принц Ахмед во всем дворце не весел. Вместо того, чтобы радоваться вместе с расцветающей природой, он вынужден просиживать дни напролет на длинных уроках своего наставника.
Ахмед уже достиг немалых высот в науках - он даже понимает язык птиц! Но один предмет до сих пор окутан для юноши облаком тайны - это мир его собственных чувств. Ахмед не знает, что в день его рождения астрологи сделали страшное предсказание: если принц влюбится, королевство погрузится в пучину хаоса...

Качество: DVD5
Формат: MPEG-PS
Видео кодек: MPEG-2 Video
Аудио кодек:AC3
Видео: MPEG-2 Video, 720x576 (4:3), 6751 kbps, 25 fps, Interlaced (Top Field First), 0,651 bpp
Аудио: AC3 / 2.0 / 48 kHz / 192 kbps / 16 bit

General
Complete name : Ahmed.el.principe.de.la.Alhambra.1998.P.DVD5\VIDEO_TS\VTS_01_2.VOB
Format : MPEG-PS
File size : 1 024 MiB
Duration : 20mn 12s
Overall bit rate mode : Variable
Overall bit rate : 7 085 Kbps

Video
ID : 224 (0xE0)
Format : MPEG Video
Format version : Version 2
Format profile : Main@Main
Format settings, BVOP : Yes
Format settings, Matrix : Custom
Duration : 20mn 12s
Bit rate mode : Variable
Bit rate : 6 752 Kbps
Maximum bit rate : 8 500 Kbps
Width : 720 pixels
Height : 576 pixels
Display aspect ratio : 4:3
Frame rate : 25.000 fps
Standard : PAL
Color space : YUV
Chroma subsampling : 4:2:0
Bit depth : 8 bits
Scan type : Interlaced
Scan order : Top Field First
Compression mode : Lossy
Bits/(Pixel*Frame) : 0.651
Stream size : 976 MiB (95%)

Audio
ID : 189 (0xBD)-128 (0x80)
Format : AC-3
Format/Info : Audio Coding 3
Mode extension : CM (complete main)
Muxing mode : DVD-Video
Duration : 20mn 12s
Bit rate mode : Constant
Bit rate : 192 Kbps
Channel(s) : 2 channels
Channel positions : Front: L R
Sampling rate : 48.0 KHz
Bit depth : 16 bits
Compression mode : Lossy
Delay relative to video : -384ms
Stream size : 27.8 MiB (3%)

Menu
pb.wtf



Скачать Принц Ахмед и тайна астролога через торрент http://i43.fastpic.ru/big/2012/0806/c7/bb67e30a64eaf327e516af8673c5b6c7.jpg Скачать фильм Принц Ахмед и тайна астролога через торрент бесплантно в хорошем качестве Описание: Весна - волшебная пора, когда поют птицы и сердца. И лишь юный принц Ахмед во всем дворце не весел. Вместо того, чтобы радоваться ... 10 10 1
Торрент: Зарегистрирован [2014-10-28 19:42] · скачан: 12 раз
Статус: √ проверено
Размер: 3.29 GB
Как cкачать? Как скачать Принц Ахмед и тайна астролога через торрент | qTorrent

28-11-2019 20:33  

Отключить всю рекламу на сайте

    Дорогой пользователь! Огромная просьба, поблагодарите релизера, оцените раздачу и оставьте свои комментарий, если Вы скачали Принц Ахмед и тайна астролога через торрент бесплатно! Внесите свою лепту в развитие PiratBit!
    Комментировать посты могут только пользователи прошедшие не сложную регистрацию
    Показать сообщения:    

    Принц Ахмед и тайна астролога через торрент
    Скачать бесплатно Принц Ахмед и тайна астролога
    Принц Ахмед и тайна астролога скачать торрент
    Принц Ахмед и тайна астролога смотреть онлайн
    Cкачать фильм Принц Ахмед и тайна астролога бесплатно
    Принц Ахмед и тайна астролога скачать торрент в хорошем качестве
    Принц Ахмед и тайна астролога смотреть онлайн бесплатно в хорошем качестве


    Вы не можете начинать темы
    Вы не можете отвечать на сообщения
    Вы не можете редактировать свои сообщения
    Вы не можете удалять свои сообщения
    Вы не можете голосовать в опросах
    Вы не можете прикреплять файлы к сообщениям
    Вы можете скачивать файлы