Ссылка на приватное зеркало нашего сайта всего за 1$. Внимание количество ограничено!!!

2 сезон

iTunes

1 сезон

1

iTunes

iTunes

iTunes

1 сезон

RePack

30

ИГРА 18+

pack

ВАЖНО

!!Акция!!

Alien_RageХит недели

RePack

MK11
pack

Забери бонус

RePack

jed

!!Акция!!

Alien_Rage

RePack

fifa19

RePack

Assassins Creed: Odyssey

RePack

NEED FOR SPEED™ PAYBACK

4 сезон

9 сезон

Бесстыжие 9 сезон

Все сериалы

все сериалы на PB.wtf

RePack

FAR CRY 5
  

Самый опасный человек / A Most Wanted Man (Антон Корбейн) [2014 г., триллер, BDRip 1080p, Дубляж, iTunes Russia] pb.wtf

Самый опасный человек через торрент pb.wtf

Размер: 10.32 GB | Добавлен: 5 лет 11 мес. назад | Торрент скачан:223 раза
Скачать  

29-10-2014 02:54 Самый опасный человек Скачать торрент  

Самый опасный человек / A Most Wanted Man
Год выпуска: 2014
Страна: Великобритания, США, Германия
Жанр: триллер
Продолжительность: 02:02:23
Перевод: Дубляж, iTunes Russia
Субтитры: Английские

Режиссер: Антон Корбейн
Продюссер: Андреа Колдервуд, Саймон Корнвэлл, Стивен Корнуэлл
Сценарий: Эндрю Бовелл, Джон ле Карре
Бюджет: $17 220 643
Премьера в мире: 22 июля 2014

IMDB 7.20 (13 382)


В ролях: Филип Сеймур Хоффман, Рэйчел МакАдамс, Уиллем Дефо, Григорий Добрыгин, Нина Хосс, Робин Райт, Райнер Бок, Хомаюн Эршади, Мехди Дехби, Даниэль Брюль, Анатолий Хропов

Описание: Каждая война начинается со страха. Каждое предательство начинается с доверия. Глава секретного подразделения разведки получает задание найти опасного международного беглеца Ису Карпова, которого из симпатии укрывает молодая девушка-адвокат. Когда в погоню вступают разведки других стран, начинается большая шпионская игра, в которой любой может оказаться наживкой или акулой. А национальная безопасность нередко зависит от простых человеческих чувств.

Доп. информация: Сохранены оригинальные чаптеры, как на BluRay

Качество: BDRip 1080p
Формат: MKV
Видео кодек: AVC
Аудио кодек: AC3 / DTS
Видео: MPEG-4 AVC, 10186 Кбит/с, 1920х816, 23.976 fps
Аудио#1: Russian: 48 kHz, AC3, 3/2 (L,C,R,l,r) + LFE ch, ~384.00 kbps avg - Дублированный (iTunes)
Аудио#2: English: 48 kHz, DTS, 3/2 (L,C,R,l,r) + LFE ch, ~1509.75 kbps avg - Оригинал
General
Unique ID : 248550384870823815949861253156477689196 (0xBAFD1019A2BAD3928F827763119D5D6C)
Complete name : /home/sb1855/files/A.Most.Wanted.Man.2014.x264.D.BDRip.(1080p).Novalan.mkv
Format : Matroska
Format version : Version 4 / Version 2
File size : 10.3 GiB
Duration : 2h 2mn
Overall bit rate : 12.1 Mbps
Movie name : A.Most.Wanted.Man.2014.x264.D.BDRip.(1080p).Novalan
Encoded date : UTC 2014-10-28 14:13:55
Writing application : mkvmerge v7.3.0 ('Nouages') 64bit built on Oct 22 2014 18:53:34
Writing library : libebml v1.3.0 + libmatroska v1.4.1
DURATION : 02:02:13.088000000
NUMBER_OF_FRAMES : 229159
NUMBER_OF_BYTES : 351988224
_STATISTICS_WRITING_APP : mkvmerge v7.3.0 ('Nouages') 64bit built on Oct 22 2014 18:53:34
_STATISTICS_WRITING_DATE_UTC : 2014-10-28 14:13:55
_STATISTICS_TAGS : BPS DURATION NUMBER_OF_FRAMES NUMBER_OF_BYTES

Video
ID : 1
Format : AVC
Format/Info : Advanced Video Codec
Format profile : High@L4.1
Format settings, CABAC : Yes
Format settings, ReFrames : 5 frames
Codec ID : V_MPEG4/ISO/AVC
Duration : 2h 2mn
Bit rate : 10.2 Mbps
Width : 1 920 pixels
Height : 816 pixels
Display aspect ratio : 2.35:1
Frame rate : 23.976 fps
Color space : YUV
Chroma subsampling : 4:2:0
Bit depth : 8 bits
Scan type : Progressive
Bits/(Pixel*Frame) : 0.271
Stream size : 8.50 GiB (82%)
Title : A.Most.Wanted.Man.2014.x264.D.BDRip.(1080p).CHD
Writing library : x264 core 142 r2431 ac76440
Encoding settings : cabac=1 / ref=5 / deblock=1:-3:-3 / analyse=0x3:0x113 / me=umh / subme=10 / psy=1 / psy_rd=1.00:0.05 / mixed_ref=1 / me_range=32 / chroma_me=1 / trellis=2 / 8x8dct=1 / cqm=0 / deadzone=21,11 / fast_pskip=0 / chroma_qp_offset=-2 / threads=18 / lookahead_threads=1 / sliced_threads=0 / nr=0 / decimate=1 / interlaced=0 / bluray_compat=0 / constrained_intra=0 / bframes=5 / b_pyramid=2 / b_adapt=2 / b_bias=0 / direct=3 / weightb=1 / open_gop=0 / weightp=2 / keyint=250 / keyint_min=23 / scenecut=40 / intra_refresh=0 / rc=2pass / mbtree=0 / bitrate=10186 / ratetol=1.0 / qcomp=0.70 / qpmin=0 / qpmax=69 / qpstep=4 / cplxblur=20.0 / qblur=0.5 / ip_ratio=1.40 / pb_ratio=1.30 / aq=2:0.90
Language : English
Default : Yes
Forced : No
DURATION : 02:02:23.622000000
NUMBER_OF_FRAMES : 176071
NUMBER_OF_BYTES : 9344831898
_STATISTICS_WRITING_APP : mkvmerge v7.3.0 ('Nouages') 64bit built on Oct 22 2014 18:53:34
_STATISTICS_WRITING_DATE_UTC : 2014-10-28 14:13:55
_STATISTICS_TAGS : BPS DURATION NUMBER_OF_FRAMES NUMBER_OF_BYTES

Audio #1
ID : 2
Format : AC-3
Format/Info : Audio Coding 3
Mode extension : CM (complete main)
Format settings, Endianness : Big
Codec ID : A_AC3
Duration : 2h 2mn
Bit rate mode : Constant
Bit rate : 384 Kbps
Channel(s) : 6 channels
Channel positions : Front: L C R, Side: L R, LFE
Sampling rate : 48.0 KHz
Bit depth : 16 bits
Compression mode : Lossy
Stream size : 336 MiB (3%)
Title : ????????????? (iTunes)
Language : Russian
Default : Yes
Forced : No

Audio #2
ID : 3
Format : DTS
Format/Info : Digital Theater Systems
Codec ID : A_DTS
Duration : 2h 2mn
Bit rate mode : Constant
Bit rate : 1 510 Kbps
Channel(s) : 6 channels
Channel positions : Front: L C R, Side: L R, LFE
Sampling rate : 48.0 KHz
Bit depth : 24 bits
Compression mode : Lossy
Stream size : 1.29 GiB (13%)
Language : English
Default : No
Forced : No

Text #1
ID : 4
Format : UTF-8
Codec ID : S_TEXT/UTF8
Codec ID/Info : UTF-8 Plain Text
Title : Full
Language : English
Default : No
Forced : No

Text #2
ID : 5
Format : UTF-8
Codec ID : S_TEXT/UTF8
Codec ID/Info : UTF-8 Plain Text
Title : SDH
Language : English
Default : No
Forced : No

Menu
00:00:00.000 : en:00:00:00.000
00:08:26.256 : en:00:08:26.256
00:15:38.771 : en:00:15:38.771
00:24:58.872 : en:00:24:58.872
00:30:40.047 : en:00:30:40.047
00:37:54.147 : en:00:37:54.147
00:47:22.381 : en:00:47:22.381
00:52:45.079 : en:00:52:45.079
01:02:10.602 : en:01:02:10.602
01:09:44.430 : en:01:09:44.430
01:16:51.816 : en:01:16:51.816
01:25:22.826 : en:01:25:22.826
01:32:06.229 : en:01:32:06.229
01:40:02.914 : en:01:40:02.914
01:49:38.322 : en:01:49:38.322
01:55:53.029 : en:01:55:53.029

pb.wtf



Скачать Самый опасный человек через торрент http://i63.fastpic.ru/big/2014/1028/a8/93b421ec8b2e68c2b49fe38e9f1f16a8.png Скачать фильм Самый опасный человек через торрент бесплантно в хорошем качестве Описание: Каждая война начинается со страха. Каждое предательство начинается с доверия. Глава секретного подразделения разведки получает ... 7.5 10 8
Info! Золотая раздача, скачанное не засчитывается.
Торрент: Зарегистрирован [2014-10-29 02:54] · скачан: 223 раз
Статус: √ проверено
Размер: 10.32 GB
Как cкачать? Как скачать Самый опасный человек через торрент | qTorrent

% Раздел Тема Автор DL S | L
Фильмы 2014 [DVDrip, WEB-DLRip, HDrip] [ 2.17 GB ] Самый опасный человек / A Most Wanted Man [2014 Германия BDRip AVC Ворон Скачать
1 | 0
Фильмы 2014 [DVDrip, WEB-DLRip, HDrip] [ 1.37 GB ] Самый опасный человек / A Most Wanted Man [2014 Германия HDRip Ворон Скачать
2 | 0
Фильмы [HD 720p, 1080p] (Хороший звук DUB, MVO) [ 6.68 GB ] Самый опасный человек / A Most Wanted Man [2014 Германия BDRip 720p] [ R5] + Original + Sub от R.G. PiratFilms Messa-fan Скачать
1 | 1
Фильмы (Blu-ray, BD-Remux, HDDVD) [ 27.35 GB ] Самый опасный человек / A Most Wanted Man [2014 BDRemux / DUB Ворон Скачать
1 | 0
Наши фильмы (DVD фильмы) [ 4.3 GB ] Самый опасный человек / A Most Wanted Man [2014 DVD5] R5 voovaz Скачать
1 | 0
Фильмы [HD 720p, 1080p] (Хороший звук DUB, MVO) [ 11.51 GB ] Самый опасный человек / A Most Wanted Man [2014 Германия BDRip 1080p] [ R5] + Original + Sub от R.G. PiratFilms Messa-fan Скачать
1 | 0
Фильмы 2014 [DVDrip, WEB-DLRip, HDrip] [ 2.05 GB ] Самый опасный человек / A Most Wanted Man [2014 Германия HDRip - / ] _KaisiK_ Скачать
1 | 0

28-11-2019 20:33  

Отключить всю рекламу на сайте

29-10-2014 05:29 Самый опасный человек Скачать торрент  

Нудный фильмец..................pb.wtf



    Дорогой пользователь! Огромная просьба, поблагодарите релизера, оцените раздачу и оставьте свои комментарий, если Вы скачали Самый опасный человек через торрент бесплатно! Внесите свою лепту в развитие PiratBit!
    Комментировать посты могут только пользователи прошедшие не сложную регистрацию
    Показать сообщения:    

    Самый опасный человек через торрент
    Скачать бесплатно Самый опасный человек
    Самый опасный человек скачать торрент
    Самый опасный человек смотреть онлайн
    Cкачать фильм Самый опасный человек бесплатно
    Самый опасный человек скачать торрент в хорошем качестве
    Самый опасный человек смотреть онлайн бесплатно в хорошем качестве


    Вы не можете начинать темы
    Вы не можете отвечать на сообщения
    Вы не можете редактировать свои сообщения
    Вы не можете удалять свои сообщения
    Вы не можете голосовать в опросах
    Вы не можете прикреплять файлы к сообщениям
    Вы можете скачивать файлы