Ссылка на приватное зеркало нашего сайта всего за 1$. Внимание количество ограничено!!!

2 сезон

iTunes

1 сезон

1

iTunes

iTunes

iTunes

1 сезон

RePack

30

ИГРА 18+

pack

ВАЖНО

!!Акция!!

Alien_RageХит недели

RePack

MK11
pack

Забери бонус

RePack

jed

!!Акция!!

Alien_Rage

RePack

fifa19

RePack

Assassins Creed: Odyssey

RePack

NEED FOR SPEED™ PAYBACK

4 сезон

9 сезон

Бесстыжие 9 сезон

Все сериалы

все сериалы на PB.wtf

RePack

FAR CRY 5
  

Орел или Решка / Odds and Evens (Серджио Корбуччи) [1978 г., комедия, BDRip 720p, MVO] pb.wtf

Орел или Решка через торрент pb.wtf

Размер: 6.1 GB | Добавлен: 5 лет 11 мес. назад | Торрент скачан:21 раз
Скачать  

29-10-2014 06:05 Орел или Решка Скачать торрент  

Орел или Решка / Odds and Evens
Год выпуска: 1978
Страна: Италия
Жанр: комедия
Продолжительность: 01:55:09
Перевод: Профессиональный многоголосый(закадровый)

Режиссер: Серджио Корбуччи


kinopoisk.ru:7.470
В ролях: Теренс Хилл, Бад Спенсер, Лучано Катеначчи, Мариса Лаурито, Ким МакКэй, Сальваторе Боргезе, Джерри Лестер, Вуди Вудбери, Карло Реали, Риккардо Пиццути

Описание: После того, как лейтенанта Джонни Фирпо лишает победы спортивная мафия, подстроив поломку мотора скутера, терпению командования военно-морских сил приходит конец. Джонни посылают разобраться с игорной мафией, проникшей во все спортивные мероприятия во Флориде. И неоценимую помощь в этом деле ему окажет его брат Чарли...

Качество: BDRip 720p
Формат: MKV
Видео кодек: MPEG4
Аудио кодек: AC3
Видео: MPEG-4 AVC, 7200 Кбит/с, 1280x720, 24.000 кадр/с
Аудио#1: Русский AC3, 2 ch, 192 Кбит/с
Аудио#2: Английский AC3, 2 ch, 192 Кбит/с
Релиз подготовлен из оригинального Blu-ray Disc (custom): скриншот  
General
Unique ID : 174248199747507833193273684063014307442 (0x8316FB89600DDA088505CC7DB8AB4672)
Complete name : F:\Орёл или Решка Pari e dispari\Orel.ili.reshka.1978.BDRip.(720p).mkv
Format : Matroska
Format version : Version 4 / Version 2
File size : 6.10 GiB
Duration : 1h 55mn
Overall bit rate : 7 582 Kbps
Movie name :
Encoded date : UTC 2013-08-06 04:35:58
Writing application : mkvmerge v6.3.0 ('You can't stop me!') built on Jul 19 2013 16:27:38
Writing library : libebml v1.3.0 + libmatroska v1.4.1

Video
ID : 1
Format : AVC
Format/Info : Advanced Video Codec
Format profile : High@L4.1
Format settings, CABAC : Yes
Format settings, ReFrames : 8 frames
Codec ID : V_MPEG4/ISO/AVC
Duration : 1h 55mn
Bit rate : 7 200 Kbps
Width : 1 280 pixels
Height : 720 pixels
Display aspect ratio : 16:9
Frame rate mode : Constant
Frame rate : 24.000 fps
Color space : YUV
Chroma subsampling : 4:2:0
Bit depth : 8 bits
Scan type : Progressive
Bits/(Pixel*Frame) : 0.326
Stream size : 5.67 GiB (93%)
Title :
Writing library : x264 core 130 r2273 b3065e6
Encoding settings : cabac=1 / ref=8 / deblock=1:-3:-3 / analyse=0x3:0x133 / me=umh / subme=11 / psy=1 / psy_rd=1.00:0.20 / mixed_ref=1 / me_range=32 / chroma_me=1 / trellis=2 / 8x8dct=1 / cqm=0 / deadzone=21,11 / fast_pskip=0 / chroma_qp_offset=-3 / threads=12 / lookahead_threads=2 / sliced_threads=0 / nr=0 / decimate=0 / interlaced=0 / bluray_compat=0 / constrained_intra=0 / bframes=8 / b_pyramid=2 / b_adapt=2 / b_bias=0 / direct=3 / weightb=1 / open_gop=0 / weightp=2 / keyint=250 / keyint_min=24 / scenecut=40 / intra_refresh=0 / rc=2pass / mbtree=0 / bitrate=7200 / ratetol=1.0 / qcomp=0.60 / qpmin=0 / qpmax=69 / qpstep=4 / cplxblur=20.0 / qblur=0.5 / ip_ratio=1.40 / pb_ratio=1.30 / aq=1:1.00
Default : Yes
Forced : Yes

Audio #1
ID : 2
Format : AC-3
Format/Info : Audio Coding 3
Format profile : Dolby Digital
Mode extension : CM (complete main)
Format settings, Endianness : Big
Codec ID : A_AC3
Duration : 1h 55mn
Bit rate mode : Constant
Bit rate : 192 Kbps
Channel(s) : 2 channels
Channel positions : Front: L R
Sampling rate : 48.0 KHz
Bit depth : 16 bits
Compression mode : Lossy
Stream size : 158 MiB (3%)
Title : MVO
Language : Russian
Default : Yes
Forced : Yes

Audio #2
ID : 3
Format : AC-3
Format/Info : Audio Coding 3
Mode extension : CM (complete main)
Format settings, Endianness : Big
Codec ID : A_AC3
Duration : 1h 55mn
Bit rate mode : Constant
Bit rate : 192 Kbps
Channel(s) : 2 channels
Channel positions : Front: L R
Sampling rate : 48.0 KHz
Bit depth : 16 bits
Compression mode : Lossy
Stream size : 158 MiB (3%)
Title : English
Language : English
Default : No
Forced : No

Menu
00:00:00.000 : en:Chapter 01
00:06:08.958 : en:Chapter 02
00:12:13.708 : en:Chapter 03
00:24:07.875 : en:Chapter 04
00:39:05.458 : en:Chapter 05
00:58:59.041 : en:Chapter 06
01:17:51.666 : en:Chapter 07
01:39:46.416 : en:Chapter 08


Орел или Решка скачать торрент


pb.wtf



Скачать Орел или Решка через торрент http://pic.kartinco.top/images/7/abko8.jpg Скачать фильм Орел или Решка через торрент бесплантно в хорошем качестве Описание: После того, как лейтенанта Джонни Фирпо лишает победы спортивная мафия, подстроив поломку мотора скутера, терпению командования ... 10 10 9
Торрент: Зарегистрирован [2014-10-29 06:05] · скачан: 21 раз
Статус: √ проверено
Размер: 6.1 GB
Как cкачать? Как скачать Орел или Решка через торрент | qTorrent

28-11-2019 20:33  

Отключить всю рекламу на сайте

    Дорогой пользователь! Огромная просьба, поблагодарите релизера, оцените раздачу и оставьте свои комментарий, если Вы скачали Орел или Решка через торрент бесплатно! Внесите свою лепту в развитие PiratBit!
    Комментировать посты могут только пользователи прошедшие не сложную регистрацию
    Показать сообщения:    

    Орел или Решка через торрент
    Скачать бесплатно Орел или Решка
    Орел или Решка скачать торрент
    Орел или Решка смотреть онлайн
    Cкачать фильм Орел или Решка бесплатно
    Орел или Решка скачать торрент в хорошем качестве
    Орел или Решка смотреть онлайн бесплатно в хорошем качестве


    Вы не можете начинать темы
    Вы не можете отвечать на сообщения
    Вы не можете редактировать свои сообщения
    Вы не можете удалять свои сообщения
    Вы не можете голосовать в опросах
    Вы не можете прикреплять файлы к сообщениям
    Вы можете скачивать файлы