Ссылка на приватное зеркало нашего сайта всего за 1$. Внимание количество ограничено!!!

2 сезон

iTunes

1 сезон

1

2 сезон

2 сезон

iTunes

1 сезон

RePack

30

Ultimate

ВАЖНО

ИГРА 18+

pack

RePack

MK11
pack

Забери бонус

RePack

jed

!!Акция!!

Alien_Rage

RePack

fifa19

RePack

Assassins Creed: Odyssey

RePack

NEED FOR SPEED™ PAYBACK

4 сезон

9 сезон

Бесстыжие 9 сезон

Все сериалы

все сериалы на PB.wtf

RePack

FAR CRY 5
  

Подозреваемый / В поле зрения / Person of Interest/ Сезон: 4 / серии 1-16 из 23 (Ричард Дж. Льюис) [2014,боевик, триллер, драма , WEB-DL 1080p ] MVO NewStudio pb.wtf

Подозреваемый через торрент pb.wtf

Размер: 27.71 GB | Добавлен: 5 лет 9 мес. назад | Торрент скачан:7 раз
Скачать  

29-10-2014 10:57 Подозреваемый Скачать торрент  

В поле зрения / Person of Interest
Год выпуска: 2014
Страна: США
Режиссер: Ричард Дж. Льюис
Жанр: фантастика, боевик, триллер, драма, детектив
Продолжительность: ~00:43:41
Перевод: Профессиональный многоголосый закадровый [NewStudio]
Субтитры: русские



В ролях: Джеймс Кэвизел (John Reese), Кевин Чэпмен (Detective Lionel Fusco), Майкл Эмерсон (Harold Finch), Тараджи П. Хенсон (Joss Carter), Эми Акер (Root), Сара Шахи (Sameen Shaw), Роберт Джон Бёрк (Officer Patrick Simmons), Борис МакГайвер (Hersh), Ал Сапиенца (Detective Raymond Terney), Энрико Колантони (Carl Elias), Джон Нолан (John Greer), Кларк Питерс (Alonzo Quinn)

Описание: Предполагаемо погибший бывший агент ЦРУ Риз объединяется с таинственным миллионером чтобы предотвращать преступления. Подготовка Риза в проведении операций под прикрытием привлекает внимание миллионера Финча, гения-программиста, который изобрел программу, позволяющую предсказывать преступные склонности людей на базе анализа поведения. Используя последние достижения техники, эти двое часто преступают закон, используя навыки Риза и бесконечное богатство Финча, и останавливают преступников еще до совершения преступления. Действия Риза привлекают к себе внимание детектива Картер из отдела убийств и полицейского Фаско, которого Риз использует в своих целях. Риз и Финч понимают, что правильный человек с правильной информацией в нужное время и в нужном месте может изменить все.

Качество: WEB-DL 1080p
Формат: MKV
Видео кодек: AVC
Аудио кодек: AC3
Видео: 1916x1076, 16:9, 23.976 fps,5 546 Kbps
Аудио#1: Русский AC3, 6 ch, 384 Kbps
Аудио#2: Английский AC3, 6 ch, 384 Kbps
Внимание! Раздача ведётся путём добавления новых серий; при каждом добавлении создаётся новый торрент. Чтобы начать докачку новой серии, пользователям необходимо сделать следующее:
(1) остановить скачивание,
(2) удалить старый торрент у себя из клиента (старые серии удалять не надо),
(3) скачать новый торрент и запустить его у себя в клиенте вместо старого, при этом указать клиенту путь в старую папку куда и должно происходить скачивание новых серий.
Ваш клиент при этом должен произвести хеширование (проверку) старой папки (если не производит сам - помогите ему сделать это), и будет докачивать только те серии которых у вас ещё нет. Старые серии при этом не удаляются, а продолжают раздаваться!
Eсли вы уже удалили старые серии, то предотвратить повторную закачку старых серий можно, отжав галочку в соответсnвующих местах при запуске нового торрента. По возможности, желательно не удалять старые серии как можно дольше чтобы релизёр не столько продолжал раздавать старые серии, а смог сконцентрироваться на новых.





General
Unique ID : 176780984709833340150530852617052143739 (0x84FEC779FC275C95B3D10379AD92C07B)
Complete name : F:\В поле зрения (Сезон 4, Серия 1) Person of Interest (2014) WEBDL 1080p\В поле зрения Сезон 4\Person.of.Interest.s04e01.WEBDL.1080p.NewStudio.TV.mkv
Format : Matroska
Format version : Version 2
File size : 1.69 GiB
Duration : 43mn 36s
Overall bit rate : 5 546 Kbps
Encoded date : UTC 2014-09-24 22:23:12
Writing application : mkvmerge v2.9.9 ('Tutu') built on Nov 25 2009 21:13:32
Writing library : libebml v0.7.9 + libmatroska v0.8.1

Video
ID : 1
Format : AVC
Format/Info : Advanced Video Codec
Format profile : High@L4.0
Format settings, CABAC : Yes
Format settings, ReFrames : 4 frames
Codec ID : V_MPEG4/ISO/AVC
Duration : 43mn 36s
Bit rate : 4 667 Kbps
Width : 1 916 pixels
Height : 1 076 pixels
Display aspect ratio : 16:9
Frame rate mode : Constant
Frame rate : 23.976 fps
Color space : YUV
Chroma subsampling : 4:2:0
Bit depth : 8 bits
Scan type : Progressive
Bits/(Pixel*Frame) : 0.094
Stream size : 1.42 GiB (84%)
Language : English
Default : No
Forced : No
Color primaries : BT.709
Transfer characteristics : BT.709
Matrix coefficients : BT.709

Audio #1
ID : 2
Format : AC-3
Format/Info : Audio Coding 3
Mode extension : CM (complete main)
Format settings, Endianness : Big
Codec ID : A_AC3
Duration : 43mn 36s
Bit rate mode : Constant
Bit rate : 384 Kbps
Channel(s) : 6 channels
Channel positions : Front: L C R, Side: L R, LFE
Sampling rate : 48.0 KHz
Bit depth : 16 bits
Compression mode : Lossy
Stream size : 120 MiB (7%)
Language : Russian
Default : Yes
Forced : Yes

Audio #2
ID : 3
Format : AC-3
Format/Info : Audio Coding 3
Mode extension : CM (complete main)
Format settings, Endianness : Big
Codec ID : A_AC3
Duration : 43mn 36s
Bit rate mode : Constant
Bit rate : 384 Kbps
Channel(s) : 6 channels
Channel positions : Front: L C R, Side: L R, LFE
Sampling rate : 48.0 KHz
Bit depth : 16 bits
Compression mode : Lossy
Stream size : 120 MiB (7%)
Language : English
Default : No
Forced : No

Text
ID : 4
Format : ASS
Codec ID : S_TEXT/ASS
Codec ID/Info : Advanced Sub Station Alpha
Compression mode : Lossless
Default : Yes
Forced : Yes
Раздача ведётся путём добавления новых серий. Добавлена 16-я серия...Просьба перекачать торрент

В поле зрения скачать торрент


pb.wtf



Скачать Подозреваемый через торрент http://pic1.kartinco.top/images/9/4efho.jpg Скачать фильм Подозреваемый через торрент бесплантно в хорошем качестве Описание: Предполагаемо погибший бывший агент ЦРУ Риз объединяется с таинственным миллионером чтобы предотвращать преступления. Подготовка ... 10 10 14
Info! Золотая раздача, скачанное не засчитывается.
Торрент: Зарегистрирован [2015-02-26 06:32] · скачан: 7 раз
Статус: √ проверено
Размер: 27.71 GB
Как cкачать? Как скачать Подозреваемый через торрент | qTorrent



Последний раз редактировалось: Assasinca (2015-02-26 16:26), всего редактировалось 13 раз(а)

28-11-2019 20:33  

Отключить всю рекламу на сайте

22-11-2014 12:16 Подозреваемый Скачать торрент  

спсpb.wtf



26-11-2014 21:38 Подозреваемый Скачать торрент  

токай писал(а):

спс

sunpb.wtf



11-01-2015 23:16 Подозреваемый Скачать торрент  

:ng: С прошедшим ! Спасибо !pb.wtf



10-02-2015 20:58 Подозреваемый Скачать торрент  

А когда будет продолжение? pb.wtf



20-03-2015 17:57 Подозреваемый Скачать торрент  

уже 18 серия на подходе, а у вас и 17 нету...pb.wtf



12-04-2015 23:20 Подозреваемый Скачать торрент  

Торент будет обновляться?pb.wtf



13-05-2015 17:27 Подозреваемый Скачать торрент  

По ходу торрент умер... :cansored:pb.wtf



    Дорогой пользователь! Огромная просьба, поблагодарите релизера, оцените раздачу и оставьте свои комментарий, если Вы скачали Подозреваемый через торрент бесплатно! Внесите свою лепту в развитие PiratBit!
    Комментировать посты могут только пользователи прошедшие не сложную регистрацию
    Показать сообщения:    

    Подозреваемый через торрент
    Скачать бесплатно Подозреваемый
    Подозреваемый скачать торрент
    Подозреваемый смотреть онлайн
    Cкачать фильм Подозреваемый бесплатно
    Подозреваемый скачать торрент в хорошем качестве
    Подозреваемый смотреть онлайн бесплатно в хорошем качестве


    Вы не можете начинать темы
    Вы не можете отвечать на сообщения
    Вы не можете редактировать свои сообщения
    Вы не можете удалять свои сообщения
    Вы не можете голосовать в опросах
    Вы не можете прикреплять файлы к сообщениям
    Вы можете скачивать файлы