Ссылка на приватное зеркало нашего сайта всего за 1$. Внимание количество ограничено!!!

2 сезон

iTunes

1 сезон

1

2 сезон

2 сезон

iTunes

1 сезон

RePack

30

Ultimate

ВАЖНО

ИГРА 18+

pack

RePack

MK11
pack

Забери бонус

RePack

jed

!!Акция!!

Alien_Rage

RePack

fifa19

RePack

Assassins Creed: Odyssey

RePack

NEED FOR SPEED™ PAYBACK

4 сезон

9 сезон

Бесстыжие 9 сезон

Все сериалы

все сериалы на PB.wtf

RePack

FAR CRY 5
  

Миллениум / Девушка с татуировкой дракона / Millennium SE/ The Girl with the Dragon Tattoo (Нильс Арден Оплев / Niels Arden Oplev)/ Сезон: 1/ [2009 г., Триллер, драма, криминал, детектив, HDRip,MVO( Русский Репортаж)]Extended.Cut [TV] pb.wtf

Миллениум через торрент pb.wtf

Размер: 8.75 GB | Добавлен: 6 лет назад | Торрент скачан:41 раз
Скачать  

29-10-2014 16:46 Миллениум Скачать торрент  

Миллениум / Девушка с татуировкой дракона / Millennium SE/ The Girl with the Dragon Tattoo. Extended.Cut [TV]
Год выпуска: 2009
Страна: Германия, Дания, Швеция, Норвегия
Жанр: Триллер, драма, криминал, детектив
Продолжительность:~ 01:33:00 серия
Перевод: Многоголосый закадровый, Русский Репортаж, 100ТВ

Режиссер: Нильс Арден Оплев / Niels Arden Oplev



В ролях: Микаэл Нюквист, Нуми Рапас, Лена Эндре, Питер Абер, Владимир Антоник, Свен-Бертиль Таубе, Петер Андерссон, Ингвар Хирдвалль, Марика Лагеркранц, Бьёрн Гранат, Ева Фрёлинг, Михалис Куцогиннакис, Анника Халлин, София Ледарп, Томас Колер, Давид Денсик, Стефан Саук, Фредерик Олссон, Джейкоб Эрикссон, Гуннель Линдблум, Барбро Энберг

Сюжет фильма:
Девушка с татуировкой дракона / Мужчины, которые ненавидят женщин
Микаэль Блумквист — талантливый журналист, который верой и правдой добивается справедливости в самых скандальных делах — неожиданно терпит фиаско в своей деятельности, в результате чего вынужден отбыть срок лишения свободы.
В то же время влиятельный человек Хенрик Вангер поручает ему дело о пропаже его племянницы, которая таинственным образом исчезла из имения Вангеров, и о которой вот уже множество лет нет никаких новостей. А попытки Хенрика разыскать родственницу так же не приводят к положительным результатам.
Будучи скептиком, Микаэль сначала не верит в удачу, но вскоре обнаруживает запутанную и леденящую кровь историю, связанную с семейством Вангеров. В этом журналисту помогает неформальная особа Лисбет Саландер, прослывшая не только гениальным умом, фотографической памятью, но и прекрасными хакерскими способностями.


Девушка, которая играла с огнем
Поздно вечером в своей квартире застрелены журналист и его подруга - люди, изучавшие каналы поставки в Швецию секс-рабынь из Восточной Европы. Среди клиентов малопочтенного бизнеса замечены представители властных структур. Кажется очевидным, каким кругам была выгодна смерть этих двоих. Микаэл Блумквист начинает собственное расследование гибели своих коллег и друзей и вдруг узнает, что в убийстве подозревают его давнюю знакомую Лисбет Саландер, самую странную девушку на свете, склонную играть с огнем - к примеру, заливать его бензином. По всей Швеции идет охота на «убийцу-психопатку», но Лисбет не боится бросить вызов кому угодно - и мафии, и общественным структурам, и самой смерти.

Девушка, которая взрывала воздушные замки
Лисбет Саландер находится под неусыпным наблюдением в отделении интенсивной терапии шведской городской больницы. Она борется за жизнь и не только в физическом смысле: когда она почувствует себя достаточно хорошо, ей предстоит предстать перед судом по обвинению в трех убийствах и в покушении еще на одно. С помощью своего друга, журналиста Микаэля Блумквиста, она должна будет доказать свою невиновность и опознать продажных политиканов, из-за злоупотреблений которых страдают простые люди. А со своей стороны она готовится отомстить человеку, который пробовал убить ее и правительственным учреждениям, которые почти разрушили ее жизнь. Когда-то, она была жертвой. Теперь Лисбет Саландер готова ответить ударом на удар.
Millennium Part 01: "Män som hatar kvinnor. Part 01 / The Girl with the Dragon Tattoo - Девушка с татуировкой дракона / Мужчины, которые ненавидят женщин"
Millennium Part 02: "Män som hatar kvinnor. Part 02 / The Girl with the Dragon Tattoo - Девушка с татуировкой дракона / Мужчины, которые ненавидят женщин"
Millennium Part 03: "Flickan som lekte med elden. Part 01 / The Girl Who Played with Fire - Девушка, которая играла с огнем"
Millennium Part 04: "Flickan som lekte med elden. Part 02 / The Girl Who Played with Fire - Девушка, которая играла с огнем"
Millennium Part 05: "Luftslottet som sprängdes. Part 01 / The Girl Who Kicked the Hornet's Nest - Девушка, которая взрывала воздушные замки"
Millennium Part 06: "Luftslottet som sprängdes. Part 02 / The Girl Who Kicked the Hornet's Nest - Девушка, которая взрывала воздушные замки"
Качество: HDRip
Формат: MKV
Видео кодек: AVC
Аудио кодек: AC3
Видео: 1024x576 at 23,976 fps, x264@L4.1, ~2050 kbps
Аудио#1: AC3,48 kHz, 2/0 (L,R) ch, ~192.00 kbps




Unique ID : 177042074936798660745566075230251473627 (0x85311037F3182502BC892836EBCD5ADB)
Complete name : F:\Millennium-The Girl with the Dragon Tattoo.(Extended Cut) (2009)HDRip-AVC\Millennium.Part.1.HDRip-AVC..mkv
Format : Matroska
Format version : Version 2
File size : 1.46 GiB
Duration : 1h 33mn
Overall bit rate : 2 244 Kbps
Encoded date : UTC 2014-07-28 05:16:55
Writing application : mkvmerge v6.1.0 ('Old Devil') built on Mar 4 2013 09:10:42
Writing library : libebml v1.3.0 + libmatroska v1.4.0
DURATION : 01:33:00.768000000
NUMBER_OF_FRAMES : 174399
NUMBER_OF_BYTES : 133938432
_STATISTICS_WRITING_APP : mkvmerge v7.0.0 ('Where We Going') 64bit built on Jun 9 2014 15:16:27
_STATISTICS_WRITING_DATE_UTC : 2014-07-20 07:10:05
_STATISTICS_TAGS : BPS DURATION NUMBER_OF_FRAMES NUMBER_OF_BYTES

Video
ID : 1
Format : AVC
Format/Info : Advanced Video Codec
Format profile : High@L4.1
Format settings, CABAC : Yes
Format settings, ReFrames : 10 frames
Codec ID : V_MPEG4/ISO/AVC
Duration : 1h 33mn
Bit rate : 2 049 Kbps
Width : 1 024 pixels
Height : 576 pixels
Display aspect ratio : 16:9
Frame rate mode : Constant
Frame rate : 23.976 fps
Color space : YUV
Chroma subsampling : 4:2:0
Bit depth : 8 bits
Scan type : Progressive
Bits/(Pixel*Frame) : 0.145
Stream size : 1.30 GiB (89%)
Writing library : x264 core 130 r2273 b3065e6
Encoding settings : cabac=1 / ref=10 / deblock=1:-3:-3 / analyse=0x3:0x133 / me=umh / subme=7 / psy=1 / psy_rd=1.00:0.50 / mixed_ref=1 / me_range=32 / chroma_me=1 / trellis=2 / 8x8dct=1 / cqm=0 / deadzone=21,11 / fast_pskip=0 / chroma_qp_offset=-3 / threads=16 / lookahead_threads=4 / sliced_threads=0 / slices=4 / nr=0 / decimate=1 / interlaced=0 / bluray_compat=0 / constrained_intra=0 / bframes=12 / b_pyramid=2 / b_adapt=2 / b_bias=0 / direct=3 / weightb=1 / open_gop=0 / weightp=2 / keyint=250 / keyint_min=23 / scenecut=40 / intra_refresh=0 / rc_lookahead=60 / rc=2pass / mbtree=1 / bitrate=2049 / ratetol=1.0 / qcomp=0.70 / qpmin=0 / qpmax=69 / qpstep=4 / cplxblur=20.0 / qblur=0.5 / ip_ratio=1.40 / aq=2:2.00
Default : Yes
Forced : No

Audio
ID : 2
Format : AC-3
Format/Info : Audio Coding 3
Mode extension : CM (complete main)
Format settings, Endianness : Big
Codec ID : A_AC3
Duration : 1h 33mn
Bit rate mode : Constant
Bit rate : 192 Kbps
Channel(s) : 2 channels
Channel positions : Front: L R
Sampling rate : 48.0 KHz
Bit depth : 16 bits
Compression mode : Lossy
Stream size : 128 MiB (9%)
Title : AC3 2.0 @ 192 Kbps - Русский Репортаж, 100ТВ
Language : Russian
Default : Yes
Forced : No


Миллениум / Девушка с татуировкой дракона скачать торрент


pb.wtf



Скачать Миллениум через торрент http://pic.kartinco.top/images/7/3ragf.jpg Скачать фильм Миллениум через торрент бесплантно в хорошем качестве В ролях: Микаэл Нюквист, Нуми Рапас, Лена Эндре, Питер Абер, Владимир Антоник, Свен-Бертиль Таубе, Петер Андерссон, Ингвар Хирдвалль, ... 10 10 6
Info! Золотая раздача, скачанное не засчитывается.
Торрент: Зарегистрирован [2014-10-29 16:46] · скачан: 41 раз
Статус: √ проверено
Размер: 8.75 GB
Как cкачать? Как скачать Миллениум через торрент | qTorrent



Последний раз редактировалось: Assasinca (2015-01-06 08:43), всего редактировалось 1 раз

28-11-2019 20:33  

Отключить всю рекламу на сайте

29-10-2014 21:20 Миллениум Скачать торрент  

Очень толковые кинуШки,жаль раньше уже все пересмотрел.Продолжения хочется. pb.wtf



    Дорогой пользователь! Огромная просьба, поблагодарите релизера, оцените раздачу и оставьте свои комментарий, если Вы скачали Миллениум через торрент бесплатно! Внесите свою лепту в развитие PiratBit!
    Комментировать посты могут только пользователи прошедшие не сложную регистрацию
    Показать сообщения:    

    Миллениум через торрент
    Скачать бесплатно Миллениум
    Миллениум скачать торрент
    Миллениум смотреть онлайн
    Cкачать фильм Миллениум бесплатно
    Миллениум скачать торрент в хорошем качестве
    Миллениум смотреть онлайн бесплатно в хорошем качестве


    Вы не можете начинать темы
    Вы не можете отвечать на сообщения
    Вы не можете редактировать свои сообщения
    Вы не можете удалять свои сообщения
    Вы не можете голосовать в опросах
    Вы не можете прикреплять файлы к сообщениям
    Вы можете скачивать файлы