1 сезон

1 сезон

iTunes

1

КиноПоиск HD

Кинопоиск HD

iTunes

13

1 сезон

RePack

30

Новинка

ВАЖНО

ИГРА 18+

pack

RePack

MK11
pack

Легкие деньги

RePack

jed

RePack

fifa19

RePack

RDR2

RePack

NEED FOR SPEED™ PAYBACK

4 сезон

9 сезон

Бесстыжие 9 сезон

Все сериалы

все сериалы на PB.wtf

RePack

FAR CRY 5
  
Magnet ссылка

Станционный смотритель / The Station Agent (Томас МакКарти) [2003 г., Драма, комедия, DVDRip] pb.wtf

Станционный смотритель через торрент pb.wtf

Размер: 1.37 GB | Добавлен: 6 лет 5 мес. назад | Торрент скачан:118 раз
Скачать  

29-10-2014 17:33 Станционный смотритель Скачать торрент  

Станционный смотритель / The Station AgentГод выхода: 2003.

Страна: США

Жанр: Драма, комедия

Длительность: 01:26:11

Перевод: Профессиональный (многоголосый, закадровый)
В ролях: Питер Динклэйдж, Пол Бенджамин, Паула Гарсес, Джош Пэйс, Ричард Кайнд, Бобби Каннавале, Патришия Кларксон, Линн Коэн, Рэйвен Гудвин и др.

Режиссер: Томас МакКарти

Описание:

Родившись лилипутом, герой этого фильма с каждым годом своей жизни все больше предпочитал уединение от общества, не принимавшего его как равного, и, в конце концов, стал одиночкой, отшельником. Однаждыон оказался без средств к существованию на вокзале Нью-Джерси, и ему все же пришлось начать борьбу со своей застенчивой натурой, что привело к тому, что он познакомился с единомышленниками, такими же, как и он, одиночками...


Качество: DVDRip

Формат: AVI

Видео-кодек: XviD (AVI)

Аудио-кодек: AC3

Видео: 704x400, 1882 кб/с, 25fps

Звук: AC3, 6 ch, 384 кб/с, 48 KHz

Семпл
General
Complete name : D:\Никита\Скачано с торрента\Smotritel.2003.DVDRip.kinomagia.avi
Format : AVI
Format/Info : Audio Video Interleave
File size : 1.37 GiB
Duration : 1h 26mn
Overall bit rate : 2 273 Kbps
Writing application : VirtualDubMod 1.5.4.1 (build 2178/release)
Writing library : VirtualDubMod build 2178/release

Video
ID : 0
Format : MPEG-4 Visual
Format profile : Advanced Simple@L5
Format settings, BVOP : No
Format settings, QPel : No
Format settings, GMC : No warppoints
Format settings, Matrix : Custom
Codec ID : XVID
Codec ID/Hint : XviD
Duration : 1h 26mn
Bit rate : 1 882 Kbps
Width : 704 pixels
Height : 400 pixels
Display aspect ratio : 16:9
Frame rate : 25.000 fps
Color space : YUV
Chroma subsampling : 4:2:0
Bit depth : 8 bits
Scan type : Progressive
Compression mode : Lossy
Bits/(Pixel*Frame) : 0.267
Stream size : 1.13 GiB (83%)
Writing library : XviD 1.2.1 (UTC 2008-12-04)

Audio
ID : 1
Format : AC-3
Format/Info : Audio Coding 3
Mode extension : CM (complete main)
Format settings, Endianness : Big
Codec ID : 2000
Duration : 1h 26mn
Bit rate mode : Constant
Bit rate : 384 Kbps
Channel(s) : 6 channels
Channel positions : Front: L C R, Side: L R, LFE
Sampling rate : 48.0 KHz
Bit depth : 16 bits
Compression mode : Lossy
Stream size : 237 MiB (17%)
Alignment : Split accross interleaves
Interleave, duration : 96 ms (2.40 video frames)
Interleave, preload duration : 96 ms
Language : Russian
Релиз от: pb.wtf



Скачать Станционный смотритель через торрент http://2.firepic.org/2/images/2012-02/19/mzevg5292eaw.jpg Скачать фильм Станционный смотритель через торрент бесплантно в хорошем качестве Описание: Родившись лилипутом, герой этого фильма с каждым годом своей жизни все больше предпочитал уединение от общества, не принимавшего ... 10 10 5
Торрент: Зарегистрирован [2014-10-29 17:33] · скачан: 118 раз
Статус: √ проверено
Размер: 1.37 GB
Как cкачать? Как скачать Станционный смотритель через торрент | UTorrent

% Раздел Тема Автор DL S | L
Фильмы 2001-2005 [ 1.46 GB ] Станционный смотритель / The Station Agent [2003 WEB-DLRip] [MVO] killermax2013 Скачать
1 | 0

28-11-2019 20:33  

Отключить всю рекламу на сайте

    Дорогой пользователь! Огромная просьба, поблагодарите релизера, оцените раздачу и оставьте свои комментарий, если Вы скачали Станционный смотритель через торрент бесплатно! Внесите свою лепту в развитие PiratBit!
    Комментировать посты могут только пользователи прошедшие не сложную регистрацию
    Показать сообщения:    

    Станционный смотритель через торрент
    Скачать бесплатно Станционный смотритель
    Станционный смотритель скачать торрент
    Станционный смотритель смотреть онлайн
    Cкачать фильм Станционный смотритель бесплатно
    Станционный смотритель скачать торрент в хорошем качестве
    Станционный смотритель смотреть онлайн бесплатно в хорошем качестве


    Вы не можете начинать темы
    Вы не можете отвечать на сообщения
    Вы не можете редактировать свои сообщения
    Вы не можете удалять свои сообщения
    Вы не можете голосовать в опросах
    Вы не можете прикреплять файлы к сообщениям
    Вы можете скачивать файлы