1 сезон

3 сезон

iTunes

1

Line

MVO

iTunes

13

1 сезон

RePack

30

Deluxe

pack

Лицензия

ВАЖНО

ИГРА 18+

pack

RePack

MK11

RePack

jed

RePack

fifa19

RePack

RDR2

RePack

NEED FOR SPEED™ PAYBACK

4 сезон

9 сезон

Бесстыжие 9 сезон

Все сериалы

все сериалы на PB.wtf

RePack

FAR CRY 5

Anonymous, добрый вечер, мы катастрофически не успеваем собрать деньги на оплату серверов, помогите нам пожалуйста 5,10,15р., для нас важна любая помощь . В качестве благодарности мы отключим Вам всю рекламу на сайте (укажите свой ник в строку Ваше имя)!

×
  
Magnet ссылка

Виктор / Viktor (Филиппе Мартинес / Philippe Martinez) [2014, боевик, триллер, DVD5] R5 pb.wtf

Виктор через торрент pb.wtf

Размер: 4.19 GB | Добавлен: 6 лет 8 мес. назад | Торрент скачан:59 раз
Скачать  

29-10-2014 20:06 Виктор Скачать торрент  


Виктор / Viktor
«Отец... он готов на всё»
Страна: Франция, Россия
Студия: B-Tween, Kapara Pictures
Жанр: боевик, триллер
Год выпуска: 2014
Мировая премьера: 4 сентября 2014
Российская премьера: 4 сентября 2014
Дата выхода DVD: 11 ноября 2014
Дата выхода Blu-Ray: 11 ноября 2014
Продолжительность: 01:33:55
Перевод: Профессиональный (дублированный) [Лицензия]
Cубтитры: нет
Оригинальная аудиодорожка: нет
Режиссер: Филиппе Мартинес / Philippe Martinez
В ролях: Жерар Депардьё, Элизабет Хёрли, Евгения Ахременко, Эли Данкер, Фредерик Дюкастель, Жан Баптисте Фильон, Денис Карасёв, Полина Кузминская, Соленн Мариани, Марчелло Маццарелла
Описание: В центре сюжета история бывшего гангстера Виктора Ламбера, специализировавшегося на похищении произведений искусства. Когда-то он жил в России и с тех пор любит эту страну, а также свою бывшую сообщницу Александру Иванову. Проведя пятнадцать лет за решеткой во Франции, Виктор Ламбер возвращается в Москву, чтобы отомстить за смерть своего сына, убитого контрабандистами бриллиантов. Верная подруга Александра помогает ему в этом деле.
Бонусы: Скоро на DVD

Качество: DVD5 R5
Формат: DVD-Video
Видео кодек: MPEG2
Аудио кодек: AC3
Видео: PAL 16:9 (720x576(0.540)) MPEG Video, 25,000 кадр/сек, 5601 Кбит/сек
Аудио: Russian (Dolby AC3, 6 ch) 384 Кбит/сек, 48,0 КГц



Title: Victor.2014.DVD5
Size: 4.19 Gb ( 4 397 696,00 KBytes ) - DVD-5
Enabled regions: 1, 2, 3, 4, 5, 6, 7, 8

VTS_01 :
Play Length: 01:33:55
Video: PAL 16:9 (720x576) VBR, Auto Letterboxed
Audio:
Russian (Dolby AC3, 6 ch)

VTS_02 :
Play Length: 00:06:24
Video: PAL 16:9 (720x576) VBR, Auto Letterboxed
Audio:
Not specified (Dolby AC3, 2 ch)

* Menus Information *

VIDEO_TS Menu
Video:
PAL 16:9 (720x576) VBR
Auto Pan&Scan
Audio:
Not specified (Dolby AC3, 2 ch)
Russian Language Unit :
Title Menu

VTS_01 Menu
Video:
PAL 16:9 (720x576) VBR
Auto Pan&Scan
Audio:
Not specified (Dolby AC3, 6 ch)
Russian Language Unit :
Root Menu
Chapter (PTT) Menu

VTS_02 Menu
Video:
NTSC 4:3 (720x480) VBR
Auto Pan&Scan, Auto Letterboxed
Russian Language Unit :
Root Menu
Общее
Полное имя : F:\Новинки 2014\Victor.2014.DVD5\VIDEO_TS\VTS_01_2.VOB
Формат : MPEG-PS
Размер файла : 1024 Мбайт
Продолжительность : 23 м.
Режим общего битрейта : Переменный
Общий поток : 6106 Кбит/сек

Видео
Идентификатор : 224 (0xE0)
Формат : MPEG Video
Версия формата : Version 2
Профиль формата : Main@Main
Параметр BVOP формата : Да
Параметр матрицы формата : Выборочная
Параметр GOP формата : Variable
Продолжительность : 23 м.
Вид битрейта : Переменный
Битрейт : 5601 Кбит/сек
Максимальный битрейт : 9000 Кбит/сек
Ширина : 720 пикселей
Высота : 576 пикселей
Соотношение сторон : 16:9
Частота кадров : 25,000 кадров/сек
Стандарт вещания : PAL
Цветовое пространство : YUV
Субдискретизация насыщенности : 4:2:0
Битовая глубина : 8 бит
Тип развёртки : Прогрессивная
Метод сжатия : С потерями
Бит/(Пиксели*Кадры) : 0.540
Временной код первого кадра : 01:25:04:21
Оригинал временного кода : Group of pictures header
Размер потока : 939 Мбайт (92%)

Аудио
Идентификатор : 189 (0xBD)-128 (0x80)
Формат : AC-3
Формат/Информация : Audio Coding 3
Расширение режима : CM (complete main)
Параметр Endianness формата : Big
Режим смешивания : DVD-Video
Продолжительность : 23 м.
Вид битрейта : Постоянный
Битрейт : 384 Кбит/сек
Каналы : 6 каналов
Расположение каналов : Front: L C R, Side: L R, LFE
Частота : 48,0 КГц
Битовая глубина : 16 бит
Метод сжатия : С потерями
Задержка видео : -632 мс.
Размер потока : 64,4 Мбайт (6%)










pb.wtf



Скачать Виктор через торрент http://i65.fastpic.ru/big/2014/1029/2c/8aaf0a95b71e145dbcc6a81f5300692c.jpg Скачать фильм Виктор через торрент бесплантно в хорошем качестве Описание: В центре сюжета история бывшего гангстера Виктора Ламбера, специализировавшегося на похищении произведений искусства. Когда-то он ... 10 10 2
Торрент: Зарегистрирован [2014-10-29 20:06] · скачан: 59 раз
Статус: √ проверено
Размер: 4.19 GB
Как cкачать? Как скачать Виктор через торрент | UTorrent

% Раздел Тема Автор DL S | L
R.G. Resident & PiratVoice - Фильмы, Видео [ 2.54 GB ] В постели с Викторией / Victoria [2016 BDRip-AVC] многоголосый R.G.Resident schultz Скачать
1 | 0
R.G. Resident & PiratVoice - Фильмы, Видео [ 1.46 GB ] Виктор Франкенштейн / Victor Frankenstein [2015 WEB-DLRip-AVC ] schultz Скачать
1 | 0

28-11-2019 20:33  

Отключить всю рекламу на сайте

    Дорогой пользователь! Огромная просьба, поблагодарите релизера, оцените раздачу и оставьте свои комментарий, если Вы скачали Виктор через торрент бесплатно! Внесите свою лепту в развитие PiratBit!
    Комментировать посты могут только пользователи прошедшие не сложную регистрацию
    Показать сообщения:    

    Виктор через торрент
    Скачать бесплатно Виктор
    Виктор скачать торрент
    Виктор смотреть онлайн
    Cкачать фильм Виктор бесплатно
    Виктор скачать торрент в хорошем качестве
    Виктор смотреть онлайн бесплатно в хорошем качестве


    Вы не можете начинать темы
    Вы не можете отвечать на сообщения
    Вы не можете редактировать свои сообщения
    Вы не можете удалять свои сообщения
    Вы не можете голосовать в опросах
    Вы не можете прикреплять файлы к сообщениям
    Вы можете скачивать файлы