2 сезон

iTunes

1 сезон

1

iTunes

iTunes

iTunes

1 сезон

RePack

30

ИГРА 18+

pack

ВАЖНО

!!Акция!!

Alien_RageХит недели

RePack

MK11
pack

Забери бонус

RePack

jed

!!Акция!!

Alien_Rage

RePack

fifa19

RePack

Assassins Creed: Odyssey

RePack

NEED FOR SPEED™ PAYBACK

4 сезон

9 сезон

Бесстыжие 9 сезон

Все сериалы

все сериалы на PB.wtf

RePack

FAR CRY 5
  

Медведи-соседи / Boonie Bears, to the Rescue! (Динг Лианг / Ding Liang, Fuyuan Liu) [2014, Китай, мультфильм, комедия, приключения, WEB-DLRip, Дубляж] iTunes pb.wtf

Медведи-соседи через торрент pb.wtf

Размер: 1.37 GB | Добавлен: 6 лет назад | Торрент скачан:1027 раз
Скачать  

30-10-2014 01:33 Медведи-соседи Скачать торрент  

Медведи-соседи / Boonie Bears, to the Rescue!


  • Год выпуска: 2014
  • Страна: Китай
  • Жанр: мультфильм, комедия, приключения
  • Продолжительность: 01:33:15
  • Перевод: Дубляж - [Лицензия / iTunes]

  • Режиссер: Динг Лианг / Ding Liang, Fuyuan Liu
  • В ролях:
    Рик Джей Глен (Briar / Ted Marshall Jr. (The Evil Boss) / Ted Marshall Sr. / Arnold / Babu / Vick's Father / TV News Anchor 1 / Bald Thug / Masked Thug 2, озвучка), Шиван Ламсден (Police Dispatch / Masked Thug 3, озвучка), Paul «Maxx» Rinehart (Logger Vick / Tiki / Mr. Lee, озвучка), Тони Томпсон (Maurice / Vick's Mom / Masked Thug 4, озвучка), Джастин Джозеф Вилер (Bramble / Policeman / Skinny Thug / Masked Thug 1 / TV News Anchor 2 / Bystander / Train Conductor, озвучка)

  • Описание:
    Медведям-соседям и вездесущему дровосеку придется стать нянями очутившегося у них в лесу ребенка. Все бы ничего, если бы эта девочка не была до этого похищена и упущена бандитами, которые жаждут ее вернуть и доставить заказчику - главному злодею. Теперь нашим героям предстоит сразиться с плохими парнями и помочь найти дорогу домой малышке.
  • Рейтинг:



  • Качество: WEB-DLRip
  • Формат: :AVI
  • Видео кодек: XviD
  • Аудио кодек: AC3
  • Видео: 720x400 (16:9), 1705 kbps, 24 fps, 0,247 bpp
  • Аудио: 5.1 / 48 kHz / 384 kbps / 16 bit
  • Релиз от: GEKADOL

    Код:

    General
    Complete name                            : I:\Medvedi.sosedi.2014.D.WEB-DLRip.1400MB.avi
    Format                                   : AVI
    Format/Info                              : Audio Video Interleave
    File size                                : 1.37 GiB
    Duration                                 : 1h 33mn
    Overall bit rate                         : 2 098 Kbps
    Writing application                      : VirtualDubMod 1.5.10.3 | www.virtualdub-fr.org || (build 2550/release)
    Writing library                          : VirtualDubMod build 2550/release

    Video
    ID                                       : 0
    Format                                   : MPEG-4 Visual
    Format profile                           : Advanced Simple@L5
    Format settings, BVOP                    : 2
    Format settings, QPel                    : No
    Format settings, GMC                     : No warppoints
    Format settings, Matrix                  : Default (MPEG)
    Codec ID                                 : XVID
    Codec ID/Hint                            : XviD
    Duration                                 : 1h 33mn
    Bit rate                                 : 1 705 Kbps
    Width                                    : 720 pixels
    Height                                   : 400 pixels
    Display aspect ratio                     : 16:9
    Frame rate                               : 24.000 fps
    Color space                              : YUV
    Chroma subsampling                       : 4:2:0
    Bit depth                                : 8 bits
    Scan type                                : Progressive
    Compression mode                         : Lossy
    Bits/(Pixel*Frame)                       : 0.247
    Stream size                              : 1.11 GiB (81%)
    Writing library                          : XviD 1.2.1 (UTC 2008-12-04)

    Audio
    ID                                       : 1
    Format                                   : AC-3
    Format/Info                              : Audio Coding 3
    Mode extension                           : CM (complete main)
    Codec ID                                 : 2000
    Duration                                 : 1h 33mn
    Bit rate mode                            : Constant
    Bit rate                                 : 384 Kbps
    Channel(s)                               : 6 channels
    Channel positions                        : Front: L C R, Side: L R, LFE
    Sampling rate                            : 48.0 KHz
    Bit depth                                : 16 bits
    Compression mode                         : Lossy
    Stream size                              : 256 MiB (18%)
    Alignment                                : Split accross interleaves
    Interleave, duration                     : 42 ms (1.00 video frame)
    Interleave, preload duration             : 500 ms


    Скриншоты:



    pb.wtf



  • Скачать Медведи-соседи через торрент http://i65.fastpic.ru/big/2014/1030/45/4b09262ea0f8dd069da3aae8751eba45.jpg Скачать фильм Медведи-соседи через торрент бесплантно в хорошем качестве Описание: Медведям-соседям и вездесущему дровосеку придется стать нянями очутившегося у них в лесу ребенка. Все бы ничего, если бы эта ... 9.9 10 22
    Торрент: Зарегистрирован [2014-10-30 01:33] · скачан: 1 027 раз
    Статус: √ проверено
    Размер: 1.37 GB
    Как cкачать? Как скачать Медведи-соседи через торрент | qTorrent

    % Раздел Тема Автор DL S | L
    Зарубежные Мультфильмы (WEB-DL 720p, 1080p) [ 3.05 GB ] Медведи-соседи / Boonie Bears to the Rescue! [2014 Китай мультфильм WEB-DL 720p ] Ворон Скачать
    1 | 0

    28-11-2019 20:33  

    Отключить всю рекламу на сайте

      Дорогой пользователь! Огромная просьба, поблагодарите релизера, оцените раздачу и оставьте свои комментарий, если Вы скачали Медведи-соседи через торрент бесплатно! Внесите свою лепту в развитие PiratBit!
      Комментировать посты могут только пользователи прошедшие не сложную регистрацию
      Показать сообщения:    

      Медведи-соседи через торрент
      Скачать бесплатно Медведи-соседи
      Медведи-соседи скачать торрент
      Медведи-соседи смотреть онлайн
      Cкачать фильм Медведи-соседи бесплатно
      Медведи-соседи скачать торрент в хорошем качестве
      Медведи-соседи смотреть онлайн бесплатно в хорошем качестве


      Вы не можете начинать темы
      Вы не можете отвечать на сообщения
      Вы не можете редактировать свои сообщения
      Вы не можете удалять свои сообщения
      Вы не можете голосовать в опросах
      Вы не можете прикреплять файлы к сообщениям
      Вы можете скачивать файлы