Ссылка на приватное зеркало нашего сайта всего за 1$. Внимание количество ограничено!!!

2 сезон

iTunes

1 сезон

1

2 сезон

2 сезон

iTunes

1 сезон

RePack

30

Ultimate

ВАЖНО

ИГРА 18+

pack

RePack

MK11
pack

Забери бонус

RePack

jed

!!Акция!!

Alien_Rage

RePack

fifa19

RePack

Assassins Creed: Odyssey

RePack

NEED FOR SPEED™ PAYBACK

4 сезон

9 сезон

Бесстыжие 9 сезон

Все сериалы

все сериалы на PB.wtf

RePack

FAR CRY 5
  

Древние / Первородные /The Originals / Сезон: 2 / Серии 1-7 из 22 (Крис Грисмер / Chris Grismer) [2014, США, ужасы, фэнтези, драма, WEB-DLRip] MVO - LostFilm pb.wtf

Древние через торрент pb.wtf

Размер: 2.74 GB | Добавлен: 6 лет назад | Торрент скачан:176 раз
Скачать  

30-10-2014 06:49 Древние Скачать торрент  

Древние (Первородные) / The Originals

Год выпуска: 2014
Выпущено:: США, Bonanza Productions, My So-Called Company, Alloy Entertainment
Жанр: Ужасы, фэнтези, драма, вампиры
Длительность: 00:43:00 (Серия)
Перевод: Профессиональный (многоголосый, закадровый) - LostFilm

Режиссер: Крис Грисмер / Chris Grismer, Джеффри Дж. Хант / Jeffrey G. Hunt, Джесси Уарн / Jesse Warn

В ролях:

Джозеф Морган (Klaus Mikaelson), Дэниэл Гиллис (Elijah Mikaelson), Фиби Тонкин (Hayley), Чарльз Майкл Дэвис (Marcel Gerard), Леа Пайпс (Camille O'Connell), Даниэль Кэмпбелл (Davina Claire), Клер Холт (Rebekah Mikaelson), Стивен Крюгер (Josh Rosza), Даниэлла Пинеда (Sophie Deveraux), Эка Дарвилл (Diego), Тодд Стэшвик (Father Kieran), Элиз Левек (Genevieve)

Описание:
До того, как появились вампиры, миром правили Первородные. Спустя долгие годы Клаус Майклсон возвращается в родной Новый Орлеан, который он когда-то помог построить. Там он встречает своего старого друга и ученика Марселя. Последний навел в городе свои порядки и установил строгие правила на колдовство ведьм. Все это не касалось Клауса (который особо и не интересовался), пока однажды он не услышал, как бьется сердце его еще не рожденного ребенка. Появление наследника Первородного никак не укладывалось в новые порядки Марселя, поэтому теперь Клаусу предстоит сделать важнейший выбор в своей жизни.

Рейтинг:


Качество: WEB-DLRip
Формат: AVI
Видео кодек: XviD
Аудио кодек: MP3
Видео: 720x400 (16:9), 1500 kbps, 23,976 fps, 0,222 bpp
Аудио#1: русский / 2.0 / 48 kHz / 192 kbps
Внимание! Раздача ведётся путём добавления новых серий; при каждом добавлении создаётся новый торрент. Чтобы начать докачку новой серии, пользователям необходимо сделать следующее:
(1) остановить скачивание,
(2) удалить старый торрент у себя из клиента (старые серии удалять не надо),
(3) скачать новый торрент и запустить его у себя в клиенте вместо старого, при этом указать клиенту путь в старую папку куда и должно происходить скачивание новых серий.
Ваш клиент при этом должен произвести хеширование (проверку) старой папки (если не производит сам - помогите ему сделать это), и будет докачивать только те серии которых у вас ещё нет. Старые серии при этом не удаляются, а продолжают раздаваться!
Eсли вы уже удалили старые серии, то предотвратить повторную закачку старых серий можно, отжав галочку в соответсвующих местах при запуске нового торрента. По возможности, желательно не удалять старые серии как можно дольше чтобы релизёр не столько продолжал раздавать старые серии, а смог сконцентрироваться на новых.







Общее
Полное имя : D:\uTorrent\Первородные (S02) LF\The.Originals.S02E01.rus.LostFilm.TV.avi
Формат : AVI
Формат/Информация : Audio Video Interleave
Размер файла : 407 Мбайт
Продолжительность : 42 м.
Режим общего битрейта : Переменный
Общий поток : 1331 Кбит/сек
Программа кодирования : Nandub v1.0rc2
Библиотека кодирования : Nandub build 1853/release

Видео
Идентификатор : 0
Формат : MPEG-4 Visual
Профиль формата : Advanced Simple@L5
Параметр BVOP формата : Нет
Параметр QPel формата : Нет
Параметр GMC формата : Без точки перехода
Параметр матрицы формата : Default (H.263)
Идентификатор кодека : XVID
Идентификатор кодека/Подсказка : XviD
Продолжительность : 42 м.
Битрейт : 1131 Кбит/сек
Ширина : 720 пикселей
Высота : 400 пикселей
Соотношение сторон : 16:9
Частота кадров : 23,976 кадра/сек
Цветовое пространство : YUV
Субдискретизация насыщенности : 4:2:0
Битовая глубина : 8 бит
Тип развёртки : Прогрессивная
Метод сжатия : С потерями
Бит/(Пиксели*Кадры) : 0.164
Размер потока : 345 Мбайт (85%)
Библиотека кодирования : XviD 1.2.1 (UTC 2008-12-04)

Аудио
Идентификатор : 1
Формат : MPEG Audio
Версия формата : Version 1
Профиль формата : Layer 3
Режим : Joint stereo
Расширение режима : MS Stereo
Идентификатор кодека : 55
Идентификатор кодека/Подсказка : MP3
Продолжительность : 42 м.
Вид битрейта : Переменный
Битрейт : 192 Кбит/сек
Каналы : 2 канала
Частота : 48,0 КГц
Метод сжатия : С потерями
Размер потока : 57,4 Мбайт (14%)
Выравнивание : Соединение по промежуткам
Продолжительность промежутка : 24 мс. (0,58 видеокадр)
Время предзагрузки промежутка : 490 мс.
Библиотека кодирования : LAME3.97b
Настройки программы : -m j -V 4 -q 3 -lowpass 18.6 --abr 192

pb.wtf



Скачать Древние через торрент http://i57.fastpic.ru/big/2014/0120/4e/2254bc1278acac016aadee2019526d4e.jpg Скачать фильм Древние через торрент бесплантно в хорошем качестве Описание: До того, как появились вампиры, миром правили Первородные. Спустя долгие годы Клаус Майклсон возвращается в родной Новый Орлеан, ... 10 10 11
Торрент: Зарегистрирован [2014-11-20 15:14] · скачан: 176 раз
Статус: √ проверено
Размер: 2.74 GB
Как cкачать? Как скачать Древние через торрент | qTorrent

28-11-2019 20:33  

Отключить всю рекламу на сайте

02-01-2015 22:45 Древние Скачать торрент  

когда добавление будет?pb.wtf



    Дорогой пользователь! Огромная просьба, поблагодарите релизера, оцените раздачу и оставьте свои комментарий, если Вы скачали Древние через торрент бесплатно! Внесите свою лепту в развитие PiratBit!
    Комментировать посты могут только пользователи прошедшие не сложную регистрацию
    Показать сообщения:    

    Древние через торрент
    Скачать бесплатно Древние
    Древние скачать торрент
    Древние смотреть онлайн
    Cкачать фильм Древние бесплатно
    Древние скачать торрент в хорошем качестве
    Древние смотреть онлайн бесплатно в хорошем качестве


    Вы не можете начинать темы
    Вы не можете отвечать на сообщения
    Вы не можете редактировать свои сообщения
    Вы не можете удалять свои сообщения
    Вы не можете голосовать в опросах
    Вы не можете прикреплять файлы к сообщениям
    Вы можете скачивать файлы