Достать ножи: Стеклянная луковица

MVO

Добыча

Дубляж

Уэнсдэй

1 сезон

Тор

Дубляж

13 клиническая

1 сезон

Жестокая ночь

MVO

Одни из нас

1 сезон

Deluxe

pack

Рекомендуем

30

Пиратка

ВАЖНО

ВАЖНО

Ghostwire

Пиратка

jed

RePack

nioh2

RePack

RDR2

RePack

NEED FOR SPEED™ PAYBACK

RePack

скачать торрент

Кинопоиск HD

Острые козырьки 6 сезон

6 сезон

FAR CRY 6

RePack

скачать торрент

Лицензия

скачать торрент

MVO

1

1 сезон

скачать торрент

1 сезон

скачать торрент

Лицензия

  

Планета обезьян: Революция / Dawn of the Planet of the Apes (Мэтт Ривз / Matt Reeves) [2014, США, фантастика, боевик, драма, WEB-DLRip-AVC,] Дубляж - [Лицензия BluRay EUR] От R.G. PiratFilms

Планета обезьян: Революция через торрент pb.wtf

Размер: 1.4 GB | Добавлен: 8 лет 3 мес. назад | Торрент скачан:1290 раз
Смотреть онлайн | Скачать | Поддержите нас   

30-10-2014 07:44 Планета обезьян: Революция Скачать торрент  

Dawn of the Planet of the Apes
«Молитесь за мир, готовьтесь к войне»


Год выпуска: 2014
Страна: США
Жанр: фантастика, боевик, драма

Продолжительность: 02:10:36
Перевод: Дубляж - [Лицензия BluRay EUR]
Субтитры: Русские вшитые на речь обезьян скачать http://multi-up.com/1008978

Режиссер: Мэтт Ривз / Matt Reeves
В ролях:

Энди Серкис (Caesar), Джейсон Кларк (Malcolm), Гари Олдман (Dreyfus), Кери Рассел (Ellie), Тоби Кеббелл (Koba), Коди Смит-МакФи (Alexander), Кирк Асеведо (Carver), Ник Тёрстон (Blue Eyes), Терри Нотари (Rocket), Карин Коновал (Maurice), Джуди Грир (Cornelia), Джон Эйз (Foster)
Описание:
Численность генетически модифицированных обезьян, возглавляемых Цезарем, продолжает увеличиваться, но обезьянам угрожают люди, которым удалось выжить во время ужасной эпидемии десятилетней давности. Поначалу между соперниками устанавливается хрупкий мир, но он оказывается недолговечным. Обезьяны и люди находятся на грани войны, в ходе которой станет понятно, кто из них в будущем станет безраздельно править планетой.
Мировая премьера: 26 июня 2014
Релиз от:
    Качество: WEB-DLRip-AVC (исх. WEB-DLRip 1080p)
    Формат: MKV
    Видео кодек: AVC
    Аудио кодек:AC3
    Видео: AVC, 1024x552 (1.855), 1153 kbps, 23,976 fps, 0,085 bpp
    Аудио: русский / AC3 / 5.1 / 48 kHz / 384 kbps

Код:

---[Information] [30.10.2014 7:46:30] x264 [info]: frame I:1361  Avg QP:15.67  size: 55301  PSNR Mean Y:48.65 U:52.28 V:52.01 Avg:49.49 Global:48.90
---[Information] [30.10.2014 7:46:30] x264 [info]: frame P:47234 Avg QP:19.08  size: 12157  PSNR Mean Y:46.22 U:51.10 V:50.83 Avg:47.24 Global:46.51
---[Information] [30.10.2014 7:46:30] x264 [info]: frame B:139304 Avg QP:21.31  size:  3437  PSNR Mean Y:46.17 U:51.39 V:51.11 Avg:47.22 Global:46.15
---[Information] [30.10.2014 7:46:30] x264 [info]: consecutive B-frames:  1.3%  2.6%  6.2% 75.1%  4.4%  5.7%  1.2%  2.2%  0.3%  0.3%  0.7%

Код:

Общее
Уникальный идентификатор                 : 195899918606370913345563189817113742816 (0x9360F3B1FE2227DB994993E28E928DE0)
Полное имя                               : D:\рипы От R.G. PiratFilms\Планета.обезьян.Революция.2014.WEB DLRip-AVC.by.White Smoke.R.G.PiratFilms.mkv
Формат                                   : Matroska
Версия формата                           : Version 4 / Version 2
Размер файла                             : 1,40 Гбайт
Продолжительность                        : 2 ч. 10 м.
Общий поток                              : 1537 Кбит/сек
Название фильма                          : Планета.обезьян.Революция.2014.WEB-DL.1080p.NNM-CLUB
Дата кодирования                         : UTC 2014-11-03 23:38:49
Программа кодирования                    : mkvmerge v6.8.0 ('Theme for Great Cities') 64bit built on Mar  2 2014 21:34:26
Библиотека кодирования                   : libebml v1.3.0 + libmatroska v1.4.1
Attachements                             : Dawn-of-the-Planet-of-the-Apes.jpg

Видео
Идентификатор                            : 1
Формат                                   : AVC
Формат/Информация                        : Advanced Video Codec
Профиль формата                          : [email protected]
Параметр CABAC формата                   : Да
Параметр ReFrames формата                : 12 кадров
Идентификатор кодека                     : V_MPEG4/ISO/AVC
Продолжительность                        : 2 ч. 10 м.
Битрейт                                  : 1153 Кбит/сек
Ширина                                   : 1024 пикселя
Высота                                   : 552 пикселя
Соотношение сторон                       : 1,85:1
Режим частоты кадров                     : Постоянный
Частота кадров                           : 23,976 кадра/сек
Цветовое пространство                    : YUV
Субдискретизация насыщенности            : 4:2:0
Битовая глубина                          : 8 бит
Тип развёртки                            : Прогрессивная
Бит/(Пиксели*Кадры)                      : 0.085
Размер потока                            : 1,02 Гбайт (73%)
Библиотека кодирования                   : x264 core 142 r2431 ac76440
Настройки программы                      : cabac=1 / ref=12 / deblock=1:-3:-3 / analyse=0x3:0x113 / me=umh / subme=9 / psy=1 / psy_rd=1.00:0.00 / mixed_ref=1 / me_range=32 / chroma_me=1 / trellis=1 / 8x8dct=1 / cqm=0 / deadzone=21,11 / fast_pskip=1 / chroma_qp_offset=-2 / threads=12 / lookahead_threads=3 / sliced_threads=0 / nr=0 / decimate=1 / interlaced=0 / bluray_compat=0 / constrained_intra=0 / bframes=10 / b_pyramid=2 / b_adapt=2 / b_bias=10 / direct=1 / weightb=0 / open_gop=0 / weightp=2 / keyint=240 / keyint_min=23 / scenecut=40 / intra_refresh=0 / rc_lookahead=40 / rc=2pass / mbtree=1 / bitrate=1153 / ratetol=1.0 / qcomp=0.65 / qpmin=0 / qpmax=69 / qpstep=4 / cplxblur=20.0 / qblur=0.5 / ip_ratio=1.40 / aq=1:1.00
Язык                                     : English
Default                                  : Да
Forced                                   : Нет

Аудио
Идентификатор                            : 2
Формат                                   : AC-3
Формат/Информация                        : Audio Coding 3
Расширение режима                        : CM (complete main)
Параметр Endianness формата              : Big
Идентификатор кодека                     : A_AC3
Продолжительность                        : 2 ч. 10 м.
Вид битрейта                             : Постоянный
Битрейт                                  : 384 Кбит/сек
Каналы                                   : 6 каналов
Расположение каналов                     : Front: L C R, Side: L R, LFE
Частота                                  : 48,0 КГц
Битовая глубина                          : 16 бит
Метод сжатия                             : С потерями
Размер потока                            : 359 Мбайт (25%)
Default                                  : Да
Forced                                   : Нет


Скриншоты:

За Обложку к релизу спасибо =ItachiUchiha=







Скачать Планета обезьян: Революция через торрент https://pic1.kartinco.top/images/71/vvzb6.jpg Скачать, смотреть онлайн Планета обезьян: Революция бесплантно в хорошем качестве Описание: Численность генетически модифицированных обезьян, возглавляемых Цезарем, продолжает увеличиваться, но обезьянам угрожают люди, ... 9.7 10 96
Info! Золотая раздача, скачанное не засчитывается.
Торрент: Зарегистрирован [2014-11-03 23:56] · скачан: 1 290 раз
Статус: √ проверено
Размер: 1.4 GB
Как cкачать? Как скачать Планета обезьян: Революция через торрент | UTorrent

28-11-2019 20:33  


Отключить вcю реклaмy на сайте, в т.ч. и в плеере онлайн просмотра!

06-11-2014 11:38 Планета обезьян: Революция Скачать торрент  

нудный фильм , почти пол-фильма перематывал



07-11-2014 20:24 Планета обезьян: Революция Скачать торрент  

Очень плохо, пришлось на перемотке досматривать



08-11-2014 20:49 Планета обезьян: Революция Скачать торрент  

фильм интересен первые минут 40-60. очень похож на первую часть, где упор на становлении мартышек как отдельного общества. А вторая половина второй части о Цезари это глупо реализованный экшн, который в сравнении с логикой повествования первого фильма и части второго смотрится скорее смешно, чем зрелищно. Это мое критическое мнение, а в сухом остатке фильм неплох и не более



12-11-2014 13:34 Планета обезьян: Революция Скачать торрент  

Artlight писал(а):


Фильм никоим образом не похож на 1-ю часть. Он аллегорический пасквиль на новейшую историю одной большой страны. Кличка обезьяньего агрессивного диктатора "Коба" намекает на кого-то, или нет?



    Дорогой пользователь! Огромная просьба, поблагодарите релизера, оцените раздачу и оставьте свои комментарий, если Вы скачали Планета обезьян: Революция через торрент бесплатно!!
    Комментировать посты могут только пользователи прошедшие не сложную регистрацию
    Показать сообщения:    


    Планета обезьян: Революция через торрент
    Скачать бесплатно Планета обезьян: Революция
    Планета обезьян: Революция скачать торрент
    Планета обезьян: Революция смотреть онлайн
    Cкачать фильм Планета обезьян: Революция бесплатно
    Планета обезьян: Революция скачать торрент в хорошем качестве
    Планета обезьян: Революция смотреть онлайн бесплатно в хорошем качестве
    Вы не можете начинать темы
    Вы не можете отвечать на сообщения
    Вы не можете редактировать свои сообщения
    Вы не можете удалять свои сообщения
    Вы не можете голосовать в опросах
    Вы не можете прикреплять файлы к сообщениям
    Вы можете скачивать файлы
    Планета обезьян: Революция / Dawn of the Planet of the Apes [2014, США, фантастика, боевик, драма, WEB-DLRip-AVC,] Дубляж - [Лицензия BluRay EUR] От R.G. PiratFilms смотреть онлайн, скачать торрент picoco.icu