Ссылка на приватное зеркало нашего сайта всего за 1$. Внимание количество ограничено!!!

2 сезон

iTunes

1 сезон

1

iTunes

iTunes

iTunes

1 сезон

RePack

30

ИГРА 18+

pack

ВАЖНО

!!Акция!!

Alien_RageХит недели

RePack

MK11
pack

Забери бонус

RePack

jed

!!Акция!!

Alien_Rage

RePack

fifa19

RePack

Assassins Creed: Odyssey

RePack

NEED FOR SPEED™ PAYBACK

4 сезон

9 сезон

Бесстыжие 9 сезон

Все сериалы

все сериалы на PB.wtf

RePack

FAR CRY 5
  

Голова в облаках / Head in the Clouds (Джон Дайган / John Duigan) [2003, Великобритания, Канада, драма, мелодрама, военный, BDRip 720p,Дублированный - [Лицензия] pb.wtf

Голова в облаках через торрент pb.wtf

Размер: 4.36 GB | Добавлен: 5 лет 11 мес. назад | Торрент скачан:136 раз
Скачать  

30-10-2014 19:41 Голова в облаках Скачать торрент  

Русское название: Голова в облаках
Оригинальное название: Head in the Clouds
Год выпуска: 2003
Жанр: драма, мелодрама, военный
Выпущено: Великобритания, Канада
Продолжительность: 01:59:15
Перевод: Дублированный - [Лицензия]

Режиссер: Джон Дайган
В ролях: Шарлиз Терон , Пенелопа Крус , Стюарт Таунсенд , Томас Кречман , Стивен Беркофф , Давид Ла Эй , Карин Ванасс , Гэбриел Хоган , Питер Коккет , Элизабет Шувалидзе , Жольван Ланглуа , Софи Демаре

Сюжет фильма:
Впервые ирландский парень Гай увидел Гильду Бессе в весьма эксцентрической ситуации, когда учился в университете. Потом они расстались, потом вновь встретились... И судьба не единожды сводила - разводила Гая и Гильду - как в разгульные 1930-е, так и в тревожные предвоенные, и в трагические военные годы. Богатая и избалованная Гильда вела достаточно свободный образ жизни, благодаря чему Гай познакомился со многими людьми ее круга. Однажды он увидел рядом с Гильдой испанку Мию...



Качество: BDRip 720p (исходник Blu-ray)
Формат: AVC (библиотека кодирования x.264)
Контейнер (Расширение): MKV
Видео: AVC, 1280x546 (2.35:1), 3967 Кбит/сек, 24 кадр/сек, 0,237 Бит/[Пиксели*Кадры]
Аудио №1: русский / AC3 / 5.1 / 48 kHz / 640 kbps / 16 bit |Дублированный|
Аудио №2: английский / AC3 / 5.1 / 48 kHz / 640 kbps / 16 bit
Субтитры: русские (Russian)
Навигация по главам(Чаптеры): естьАвтор рипа: Сообщество:
Format : Matroska
Format version : Version 2
File size : 4.36 GiB
Duration : 1h 59mn
Overall bit rate : 5 234 Kbps
Movie name : Golova v oblakah.(2004).BDRip.720p.[denis100]
Encoded date : UTC 2014-10-30 09:30:31
Writing application : mkvmerge v5.8.0 ('No Sleep / Pillow') built on Sep 2 2012 15:37:04
Writing library : libebml v1.2.3 + libmatroska v1.3.0

Video
ID : 1
Format : AVC
Format/Info : Advanced Video Codec
Format profile : High@L4.1
Format settings, CABAC : Yes
Format settings, ReFrames : 11 frames
Codec ID : V_MPEG4/ISO/AVC
Duration : 1h 59mn
Bit rate : 3 967 Kbps
Width : 1 280 pixels
Height : 546 pixels
Display aspect ratio : 2.35:1
Frame rate : 24.000 fps
Color space : YUV
Chroma subsampling : 4:2:0
Bit depth : 8 bits
Scan type : Progressive
Bits/(Pixel*Frame) : 0.237
Stream size : 3.21 GiB (74%)
Title : Golova v oblakah.(2004).BDRip.720p.[denis100]
Writing library : x264 core 142 r2479 dd79a61
Encoding settings : cabac=1 / ref=11 / deblock=1:-3:-3 / analyse=0x3:0x133 / me=umh / subme=11 / psy=1 / psy_rd=1.00:0.10 / mixed_ref=1 / me_range=64 / chroma_me=1 / trellis=2 / 8x8dct=1 / cqm=0 / deadzone=21,11 / fast_pskip=0 / chroma_qp_offset=-3 / threads=6 / lookahead_threads=1 / sliced_threads=0 / nr=0 / decimate=1 / interlaced=0 / bluray_compat=0 / constrained_intra=0 / bframes=8 / b_pyramid=2 / b_adapt=2 / b_bias=0 / direct=3 / weightb=1 / open_gop=0 / weightp=2 / keyint=240 / keyint_min=23 / scenecut=40 / intra_refresh=0 / rc=2pass / mbtree=0 / bitrate=3967 / ratetol=1.0 / qcomp=0.60 / qpmin=0 / qpmax=69 / qpstep=4 / cplxblur=20.0 / qblur=0.5 / ip_ratio=1.40 / pb_ratio=1.30 / aq=1:0.90
Language : English
Default : Yes
Forced : No

Audio #1
ID : 2
Format : AC-3
Format/Info : Audio Coding 3
Mode extension : CM (complete main)
Codec ID : A_AC3
Duration : 1h 59mn
Bit rate mode : Constant
Bit rate : 640 Kbps
Channel(s) : 6 channels
Channel positions : Front: L C R, Side: L R, LFE
Sampling rate : 48.0 KHz
Bit depth : 16 bits
Compression mode : Lossy
Stream size : 546 MiB (12%)
Title : Дублированный
Language : Russian
Default : Yes
Forced : No

Audio #2
ID : 3
Format : AC-3
Format/Info : Audio Coding 3
Mode extension : CM (complete main)
Codec ID : A_AC3
Duration : 1h 59mn
Bit rate mode : Constant
Bit rate : 640 Kbps
Channel(s) : 6 channels
Channel positions : Front: L C R, Side: L R, LFE
Sampling rate : 48.0 KHz
Bit depth : 16 bits
Compression mode : Lossy
Stream size : 546 MiB (12%)
Title : English
Language : English
Default : No
Forced : No

Text
ID : 4
Format : UTF-8
Codec ID : S_TEXT/UTF8
Codec ID/Info : UTF-8 Plain Text
Title : Russian
Language : Russian
Default : No
Forced : No

Menu
00:00:00.000 : en:00:00:00.000
00:05:00.000 : en:00:05:00.000
00:10:00.000 : en:00:10:00.000
00:15:00.000 : en:00:15:00.000
00:20:00.000 : en:00:20:00.000
00:25:00.000 : en:00:25:00.000
00:30:00.000 : en:00:30:00.000
00:35:00.000 : en:00:35:00.000
00:40:00.000 : en:00:40:00.000
00:45:00.000 : en:00:45:00.000
00:50:00.000 : en:00:50:00.000
00:55:00.000 : en:00:55:00.000
01:00:00.000 : en:01:00:00.000
01:05:00.000 : en:01:05:00.000
01:10:00.000 : en:01:10:00.000
01:15:00.000 : en:01:15:00.000
01:20:00.000 : en:01:20:00.000
01:25:00.000 : en:01:25:00.000
01:30:00.000 : en:01:30:00.000
01:35:00.000 : en:01:35:00.000
01:40:00.000 : en:01:40:00.000
01:45:00.000 : en:01:45:00.000
01:50:00.000 : en:01:50:00.000
01:55:00.000 : en:01:55:00.000
x264 [info]: frame I:1419 Avg QP:17.45 size:103565
x264 [info]: frame P:33602 Avg QP:19.91 size: 41230
x264 [info]: frame B:136703 Avg QP:21.95 size: 14647
pb.wtf



Скачать Голова в облаках через торрент http://4.firepic.org/4/images/2014-10/30/3bi6m20t0o7t.png Скачать фильм Голова в облаках через торрент бесплантно в хорошем качестве В ролях: Шарлиз Терон , Пенелопа Крус , Стюарт Таунсенд , Томас Кречман , Стивен Беркофф , Давид Ла Эй , Карин Ванасс , Гэбриел Хоган , ... 10 10 6
Торрент: Зарегистрирован [2014-10-30 19:41] · скачан: 136 раз
Статус: √ проверено
Размер: 4.36 GB
Как cкачать? Как скачать Голова в облаках через торрент | qTorrent

28-11-2019 20:33  

Отключить всю рекламу на сайте

    Дорогой пользователь! Огромная просьба, поблагодарите релизера, оцените раздачу и оставьте свои комментарий, если Вы скачали Голова в облаках через торрент бесплатно! Внесите свою лепту в развитие PiratBit!
    Комментировать посты могут только пользователи прошедшие не сложную регистрацию
    Показать сообщения:    

    Голова в облаках через торрент
    Скачать бесплатно Голова в облаках
    Голова в облаках скачать торрент
    Голова в облаках смотреть онлайн
    Cкачать фильм Голова в облаках бесплатно
    Голова в облаках скачать торрент в хорошем качестве
    Голова в облаках смотреть онлайн бесплатно в хорошем качестве


    Вы не можете начинать темы
    Вы не можете отвечать на сообщения
    Вы не можете редактировать свои сообщения
    Вы не можете удалять свои сообщения
    Вы не можете голосовать в опросах
    Вы не можете прикреплять файлы к сообщениям
    Вы можете скачивать файлы