Всегда рабочее зеркало без VPN и Proxy просто перед .vidak.icu напиши любое слово или цифру, Пример http://ee8.vidak.icu

>

7.4

iTunes

7.4

2 сезон

6.6

iTunes

1

7.4

2 сезон

7.2

iTunes

6.0

MVO

13

6.1

iTunes

8.3

Пиратка

30

ULTIMATE

pack

9.9

Лицензия

ВАЖНО

ИГРА 18+

pack

7.3

RePack

MK11

7.7

RePack

jed

7.8

RePack

fifa19

8.5

RePack

RDR2

RePack

NEED FOR SPEED™ PAYBACK

1 сезон

9 сезон

Бесстыжие 9 сезон

Все сериалы

все сериалы на PB.wtf

RePack

FAR CRY 5

Anonymous, добрый день, мы катастрофически не успеваем собрать деньги на оплату серверов, помогите нам пожалуйста 5,10,15р., для нас важна любая помощь . В качестве благодарности мы отключим Вам всю рекламу на сайте (укажите свой ник в строку Ваше имя)!

×
  
Magnet ссылка

Однажды в Ирландии / The Guard (Джон Майкл МакДона / John Michael McDonagh) [2011, Ирландия, триллер, комедия, криминал, BDRip 1080p,2хAVO pb.wtf

Однажды в Ирландии через торрент pb.wtf

Размер: 7.76 GB | Добавлен: 7 лет 2 мес. назад | Торрент скачан:376 раз
Смотреть онлайн Однажды в Ирландии | Скачать    Ребята, помогите собрать деньги на оплату серверов!!!

30-10-2014 20:43 Однажды в Ирландии Скачать торрент  

Однажды в Ирландии / The Guard
«The FBI are about to discover that things work a little different around here»



Год выпуска: 2011
Жанр: триллер, комедия, криминал
Выпущено: Ирландия
Продолжительность: 01:35:49
Режиссер: Джон Майкл МакДона / John Michael McDonagh
В ролях: Брендан Глисон , Дон Чидл , Марк Стронг , Лиам Каннингэм , Фионнула Флэнаган , Дэвид Уилмот , Лоуренс Кинлан , Катарина Час , Доминик МакЭллигот , Гари Лайдон , Парик Ниаланд , Джон Патрик Бирн
Перевод: Авторский (одноголосый)

Сюжет фильма:
Женщины, выпивка и веселые шутки - вот радости добродушного ирландского полицейского, сержанта Джерри Бойла. Он никогда не помышлял о геройстве, пока однажды в городишке Голуэй не появился агент ФБР, который призвал незадачливого служителя порядка помочь ему накрыть международную банду наркоторговцев. Смогут ли сработаться веселый рыжий ирландец и решительный афроамериканец? Ведь дело, за которое они взялись, окажется таким же непредсказуемым, как и они сами...



Качество: BDRip 1080p (исходник Blu-ray)
Формат: AVC (библиотека кодирования x.264)
Контейнер (Расширение): MKV
Видео: 1920x816 (2.35:1), 9669 Кбит/сек, 23,976 кадр/сек, 0,257 Бит/[Пиксели*Кадры]
Аудио №1: русский / AC3 / 5.1 / 48 kHz / 640 kbps / 16 bit |Авторский (одноголосый, закадровый) Дмитрий «Гоблин» Пучков|
Аудио №2: русский / AC3 / 5.1 / 48 kHz / 640 kbps / 16 bit |Авторский (одноголосый, закадровый) Ю.Сербин - Внимание! В переводе Юрия Сербина присутствует ненормативная лексика.|
Аудио №3: английский / AC3 / 5.1 / 48 kHz / 640 kbps / 16 bit
Субтитры: русские (Русские)
Навигация по главам(Чаптеры): естьАвтор рипа: Сообщество:
Format : Matroska
Format version : Version 2
File size : 7.76 GiB
Duration : 1h 35mn
Overall bit rate : 11.6 Mbps
Movie name : Однажды в Ирландии.(2011).BDRip.1080p.[denis100]
Encoded date : UTC 2013-12-16 17:25:02
Writing application : mkvmerge v5.8.0 ('No Sleep / Pillow') built on Sep 2 2012 15:37:04
Writing library : libebml v1.2.3 + libmatroska v1.3.0

Video
ID : 1
Format : AVC
Format/Info : Advanced Video Codec
Format profile : High@L4.1
Format settings, CABAC : Yes
Format settings, ReFrames : 5 frames
Codec ID : V_MPEG4/ISO/AVC
Duration : 1h 35mn
Bit rate : 9 669 Kbps
Width : 1 920 pixels
Height : 816 pixels
Display aspect ratio : 2.35:1
Frame rate : 23.976 fps
Color space : YUV
Chroma subsampling : 4:2:0
Bit depth : 8 bits
Scan type : Progressive
Bits/(Pixel*Frame) : 0.257
Stream size : 6.32 GiB (81%)
Title : Однажды в Ирландии.(2011).BDRip.1080p.[denis100]
Writing library : x264 core 140 r2377 1ca7bb9
Encoding settings : cabac=1 / ref=5 / deblock=1:-3:-3 / analyse=0x3:0x133 / me=umh / subme=11 / psy=1 / psy_rd=1.00:0.10 / mixed_ref=1 / me_range=32 / chroma_me=1 / trellis=2 / 8x8dct=1 / cqm=0 / deadzone=21,11 / fast_pskip=0 / chroma_qp_offset=-3 / threads=6 / lookahead_threads=1 / sliced_threads=0 / nr=0 / decimate=0 / interlaced=0 / bluray_compat=0 / constrained_intra=0 / bframes=5 / b_pyramid=2 / b_adapt=2 / b_bias=0 / direct=3 / weightb=1 / open_gop=0 / weightp=2 / keyint=240 / keyint_min=23 / scenecut=40 / intra_refresh=0 / rc=2pass / mbtree=0 / bitrate=9669 / ratetol=1.0 / qcomp=0.60 / qpmin=0 / qpmax=69 / qpstep=4 / cplxblur=20.0 / qblur=0.5 / ip_ratio=1.40 / pb_ratio=1.30 / aq=1:0.90
Language : English
Default : Yes
Forced : No

Audio #1
ID : 2
Format : AC-3
Format/Info : Audio Coding 3
Mode extension : CM (complete main)
Codec ID : A_AC3
Duration : 1h 35mn
Bit rate mode : Constant
Bit rate : 640 Kbps
Channel(s) : 6 channels
Channel positions : Front: L C R, Side: L R, LFE
Sampling rate : 48.0 KHz
Bit depth : 16 bits
Compression mode : Lossy
Stream size : 439 MiB (6%)
Title : Авторский (одноголосый, закадровый) Дмитрий «Гоблин» Пучков
Language : Russian
Default : Yes
Forced : No

Audio #2
ID : 3
Format : AC-3
Format/Info : Audio Coding 3
Mode extension : CM (complete main)
Codec ID : A_AC3
Duration : 1h 35mn
Bit rate mode : Constant
Bit rate : 640 Kbps
Channel(s) : 6 channels
Channel positions : Front: L C R, Side: L R, LFE
Sampling rate : 48.0 KHz
Bit depth : 16 bits
Compression mode : Lossy
Stream size : 439 MiB (6%)
Title : Авторский (одноголосый, закадровый) Ю.Сербин
Language : Russian
Default : No
Forced : No

Audio #3
ID : 4
Format : AC-3
Format/Info : Audio Coding 3
Mode extension : CM (complete main)
Codec ID : A_AC3
Duration : 1h 35mn
Bit rate mode : Constant
Bit rate : 640 Kbps
Channel(s) : 6 channels
Channel positions : Front: L C R, Side: L R, LFE
Sampling rate : 48.0 KHz
Bit depth : 16 bits
Compression mode : Lossy
Stream size : 439 MiB (6%)
Title : Английский
Language : English
Default : No
Forced : No

Text
ID : 5
Format : UTF-8
Codec ID : S_TEXT/UTF8
Codec ID/Info : UTF-8 Plain Text
Title : Русские
Language : Russian
Default : No
Forced : No

Menu
00:00:00.000 : en:00:00:00.000
00:02:59.763 : en:00:02:59.763
00:12:39.217 : en:00:12:39.217
00:19:56.654 : en:00:19:56.654
00:26:52.444 : en:00:26:52.444
00:37:54.063 : en:00:37:54.063
00:45:10.041 : en:00:45:10.041
00:51:44.018 : en:00:51:44.018
01:00:21.076 : en:01:00:21.076
01:09:32.585 : en:01:09:32.585
01:16:51.106 : en:01:16:51.106
01:27:47.846 : en:01:27:47.846
01:35:38.900 : en:01:35:38.900
pb.wtf



Скачать Однажды в Ирландии через торрент http://i65.fastpic.ru/big/2014/1030/0f/6633c4a56f1d30d2be860d554545f60f.png Скачать, смотреть онлайн Однажды в Ирландии бесплантно в хорошем качестве В ролях: Брендан Глисон , Дон Чидл , Марк Стронг , Лиам Каннингэм , Фионнула Флэнаган , Дэвид Уилмот , Лоуренс Кинлан , Катарина Час , ... 10 10 9
Info! Золотая раздача, скачанное не засчитывается.
Торрент: Зарегистрирован [2014-10-30 20:43] · скачан: 376 раз
Статус: √ проверено
Размер: 7.76 GB
Как cкачать? Как скачать Однажды в Ирландии через торрент | UTorrent

28-11-2019 20:33  

Отключить всю рекламу на сайте

    Дорогой пользователь! Огромная просьба, поблагодарите релизера, оцените раздачу и оставьте свои комментарий, если Вы скачали Однажды в Ирландии через торрент бесплатно!
    Комментировать посты могут только пользователи прошедшие не сложную регистрацию
    Показать сообщения:    

    Однажды в Ирландии через торрент
    Скачать бесплатно Однажды в Ирландии
    Однажды в Ирландии скачать торрент
    Однажды в Ирландии смотреть онлайн
    Cкачать фильм Однажды в Ирландии бесплатно
    Однажды в Ирландии скачать торрент в хорошем качестве
    Однажды в Ирландии смотреть онлайн бесплатно в хорошем качестве


    Вы не можете начинать темы
    Вы не можете отвечать на сообщения
    Вы не можете редактировать свои сообщения
    Вы не можете удалять свои сообщения
    Вы не можете голосовать в опросах
    Вы не можете прикреплять файлы к сообщениям
    Вы можете скачивать файлы