Ссылка на приватное зеркало нашего сайта всего за 1$. Внимание количество ограничено!!!

2 сезон

iTunes

1 сезон

1

iTunes

iTunes

iTunes

1 сезон

RePack

30

ИГРА 18+

pack

ВАЖНО

!!Акция!!

Alien_RageХит недели

RePack

MK11
pack

Забери бонус

RePack

jed

!!Акция!!

Alien_Rage

RePack

fifa19

RePack

Assassins Creed: Odyssey

RePack

NEED FOR SPEED™ PAYBACK

4 сезон

9 сезон

Бесстыжие 9 сезон

Все сериалы

все сериалы на PB.wtf

RePack

FAR CRY 5
  

Удачи, Чак! / Good Luck Chuck (Марк Хелфрич / Mark Helfrich) [2007, США, Канада, драма, мелодрама, комедия, BDRip 1080p,Дублированный, Unrated Director's Cut pb.wtf

Удачи, Чак! через торрент pb.wtf

Размер: 7.94 GB | Добавлен: 5 лет 11 мес. назад | Торрент скачан:103 раза
Скачать  

30-10-2014 21:03 Удачи, Чак! Скачать торрент  

Удачи, Чак! / Good Luck Chuck
«Секс! Секс! Секс! И...Любовь?»


Год выпуска: 2007
Жанр: драма, мелодрама, комедия
Выпущено: США, Канада
Продолжительность: 01:41:18
Режиссер: Марк Хелфрич / Mark Helfrich
В ролях: Джессика Альба , Дейн Кук , Дэн Фоглер , Коннор Прайс , Трой Джентиле , Маккензи Моуат , Саша Питерс , Кэролайн Форд , Челан Симмонс , Натали Моррис , Эллиа Инглиш , Чанг Тсенг
Перевод: Дублированный - [Лицензия]

Сюжет фильма:
Довольный жизнью молодой дантист обнаруживает удивительную вещь - любая девушка после встреч с ним буквально на следующий день находит себе идеального спутника жизни. Главного героя вполне устраивает такая ситуация - никаких, понимаешь, обязательств и шумных разрывов. Разумеется, ситуация в корне меняется, когда он находит свою половинку.

Unrated-версия не выходила в дубляже, поэтому несколько сцен остались без перевода (около 2 минут - в основном постельные сцены)



Качество: BDRip 1080p (исходник Blu-ray)
Формат: AVC (библиотека кодирования x.264)
Контейнер (Расширение): MKV
Видео кодек: AVC
Аудио кодек: AC3
Видео: 1920x1036 (1.853), 9956 Кбит/сек, 23,976 кадр/сек, 0,209 Бит/[Пиксели*Кадры]
Аудио №1: русский / AC3 / 5.1 / 48 kHz / 640 kbps / 16 bit |Дублированный|
Аудио №2: английский / AC3 / 5.1 / 48 kHz / 640 kbps / 16 bitАвтор рипа: Сообщество:
Format : Matroska
Format version : Version 2
File size : 7.94 GiB
Duration : 1h 41mn
Overall bit rate : 11.2 Mbps
Movie name : Good Luck Chuck.(2007).BDRip.1080p.[denis100]
Encoded date : UTC 2014-04-08 07:48:53
Writing application : mkvmerge v5.8.0 ('No Sleep / Pillow') built on Sep 2 2012 15:37:04
Writing library : libebml v1.2.3 + libmatroska v1.3.0

Video
ID : 1
Format : AVC
Format/Info : Advanced Video Codec
Format profile : High@L4.1
Format settings, CABAC : Yes
Format settings, ReFrames : 4 frames
Codec ID : V_MPEG4/ISO/AVC
Duration : 1h 41mn
Bit rate : Kbps
Width : 1 920 pixels
Height : 1 036 pixels
Display aspect ratio : 1.85:1
Frame rate mode : Constant
Frame rate : 23.976 fps
Color space : YUV
Chroma subsampling : 4:2:0
Bit depth : 8 bits
Scan type : Progressive
Bits/(Pixel*Frame) : 0.209
Stream size : 6.88 GiB (87%)
Title : Good Luck Chuck.(2007).BDRip.1080p.[denis100]
Writing library : x264 core 138 r2358 9e941d1
Encoding settings : cabac=1 / ref=4 / deblock=1:-3:-3 / analyse=0x3:0x133 / me=umh / subme=11 / psy=1 / psy_rd=1.00:0.10 / mixed_ref=1 / me_range=32 / chroma_me=1 / trellis=2 / 8x8dct=1 / cqm=0 / deadzone=21,11 / fast_pskip=0 / chroma_qp_offset=-3 / threads=6 / lookahead_threads=1 / sliced_threads=0 / nr=0 / decimate=1 / interlaced=0 / bluray_compat=0 / constrained_intra=0 / bframes=8 / b_pyramid=2 / b_adapt=2 / b_bias=0 / direct=3 / weightb=1 / open_gop=0 / weightp=2 / keyint=240 / keyint_min=23 / scenecut=40 / intra_refresh=0 / rc=2pass / mbtree=0 / bitrate=9956 / ratetol=1.0 / qcomp=0.60 / qpmin=0 / qpmax=69 / qpstep=4 / cplxblur=20.0 / qblur=0.5 / ip_ratio=1.40 / pb_ratio=1.30 / aq=2:0.90
Language : English
Default : Yes
Forced : No

Audio #1
ID : 2
Format : AC-3
Format/Info : Audio Coding 3
Mode extension : CM (complete main)
Format settings, Endianness : Big
Codec ID : A_AC3
Duration : 1h 41mn
Bit rate mode : Constant
Bit rate : 640 Kbps
Channel(s) : 6 channels
Channel positions : Front: L C R, Side: L R, LFE
Sampling rate : 48.0 KHz
Bit depth : 16 bits
Compression mode : Lossy
Stream size : 464 MiB (6%)
Title : Дублированный
Language : Russian
Default : Yes
Forced : No

Audio #2
ID : 3
Format : AC-3
Format/Info : Audio Coding 3
Mode extension : CM (complete main)
Format settings, Endianness : Big
Codec ID : A_AC3
Duration : 1h 41mn
Bit rate mode : Constant
Bit rate : 640 Kbps
Channel(s) : 6 channels
Channel positions : Front: L C R, Side: L R, LFE
Sampling rate : 48.0 KHz
Bit depth : 16 bits
Compression mode : Lossy
Stream size : 464 MiB (6%)
Title : English
Language : English
Default : No
Forced : No
pb.wtf



Скачать Удачи, Чак! через торрент http://5.firepic.org/5/images/2014-04/09/5ugi28d9h63w.png Скачать фильм Удачи, Чак! через торрент бесплантно в хорошем качестве В ролях: Джессика Альба , Дейн Кук , Дэн Фоглер , Коннор Прайс , Трой Джентиле , Маккензи Моуат , Саша Питерс , Кэролайн Форд , Челан ... 10 10 5
Торрент: Зарегистрирован [2014-10-30 21:03] · скачан: 103 раз
Статус: √ проверено
Размер: 7.94 GB
Как cкачать? Как скачать Удачи, Чак! через торрент | qTorrent



Последний раз редактировалось: _denis_100 (2014-10-30 21:36), всего редактировалось 1 раз

28-11-2019 20:33  

Отключить всю рекламу на сайте

    Дорогой пользователь! Огромная просьба, поблагодарите релизера, оцените раздачу и оставьте свои комментарий, если Вы скачали Удачи, Чак! через торрент бесплатно! Внесите свою лепту в развитие PiratBit!
    Комментировать посты могут только пользователи прошедшие не сложную регистрацию
    Показать сообщения:    

    Удачи, Чак! через торрент
    Скачать бесплатно Удачи, Чак!
    Удачи, Чак! скачать торрент
    Удачи, Чак! смотреть онлайн
    Cкачать фильм Удачи, Чак! бесплатно
    Удачи, Чак! скачать торрент в хорошем качестве
    Удачи, Чак! смотреть онлайн бесплатно в хорошем качестве


    Вы не можете начинать темы
    Вы не можете отвечать на сообщения
    Вы не можете редактировать свои сообщения
    Вы не можете удалять свои сообщения
    Вы не можете голосовать в опросах
    Вы не можете прикреплять файлы к сообщениям
    Вы можете скачивать файлы