Ссылка на приватное зеркало нашего сайта всего за 1$. Внимание количество ограничено!!!

2 сезон

iTunes

1 сезон

1

iTunes

iTunes

iTunes

1 сезон

RePack

30

ИГРА 18+

pack

ВАЖНО

!!Акция!!

Alien_RageХит недели

RePack

MK11
pack

Забери бонус

RePack

jed

!!Акция!!

Alien_Rage

RePack

fifa19

RePack

Assassins Creed: Odyssey

RePack

NEED FOR SPEED™ PAYBACK

4 сезон

9 сезон

Бесстыжие 9 сезон

Все сериалы

все сериалы на PB.wtf

RePack

FAR CRY 5
  

Техасская резня бензопилой / The Texas Chainsaw Massacre (Маркус Ниспел ) [2003, ужасы, BDRip 1080p, Дубляж Профессиональный многоголосый, Авторский (одноголосый) pb.wtf

Техасская резня бензопилой через торрент pb.wtf

Размер: 7.76 GB | Добавлен: 5 лет 11 мес. назад | Торрент скачан:61 раз
Скачать  

31-10-2014 10:46 Техасская резня бензопилой Скачать торрент  

Техасская резня бензопилой / The Texas Chainsaw Massacre
«Узнай, как рождается страх»


Год выпуска: 2003
Страна: США
Жанр: ужасы
Продолжительность: 01:38:17
Перевод: Дубляж, Профессиональный многоголосый, Авторский (одноголосый)
Субтитры: русские (Russian)

Режиссер: Маркус Ниспел
В ролях: Джессика Бил , Джонатан Такер , Эрика Лирсен , Майк Фогель , Эрик Бальфур , Эндрю Бринярски , Р. Ли Эрми , Дэвид Дорфман , Лорен Джерман , Терренс Эванс , Мэриетта Мэрич , Хезер Кафка
Описание::
В штате Техас на ферме обычного работника скотобойни Томаса Хьюитта полиция обнаружила 33 изувеченных человеческих тела. Ужасающее открытие шокировало людей, и было названо самым жутким массовым убийством за все время. Газеты писали: «Дом террора национального масштаба. Бойня в Техасе». Пресса окрестила убийцу как «Человек с лицом из кожи».
Местные власти застрелили человека, носившего на лице кожаную маску. Дело было закрыто. Но в последующие годы, множество убийств показало, что полиция нашла не того преступника. Случайно уцелевший свидетель рассказал настоящую историю того, что на самом деле произошло на заброшенном техасском шоссе, когда пятеро подростков оказались в ловушке у безумного человека с бензопилой...

Качество: BDRip 1080p (исходник Blu-ray)
Контейнер (Расширение): MKV (библиотека кодирования x.264)
Видео кодек: AVC
Аудио кодек: AC3
Видео: 1920x1080 (16:9), 9190 Кбит/сек, 23,976 кадр/сек, 0,185 Бит/[Пиксели*Кадры]
Аудио №1: русский / AC3 / 5.1 / 48 kHz / 448 kbps / 16 bit |Дублированный|
Аудио №2: русский / AC3 / 5.1 / 48 kHz / 384 kbps / 16 bit |Профессиональный многоголосый закадровый|
Аудио №3: русский / AC3 / 5.1 / 48 kHz / 640 kbps / 16 bit |Авторский - М. Чадов|
Аудио №4: английский / AC3 / 5.1 / 48 kHz / 640 kbps / 16 bit
Навигация по главам(Чаптеры): естьАвтор рипа: Сообщество:

Код:

Format                                   : Matroska
Format version                           : Version 2
File size                                : 7.76 GiB
Duration                                 : 1h 38mn
Overall bit rate                         : 11.3 Mbps
Movie name                               : Tehasskaja reznja benzopiloj.(2003).BDRip.1080p.[denis100]
Encoded date                             : UTC 2014-06-24 05:51:31
Writing application                      : mkvmerge v5.8.0 ('No Sleep / Pillow') built on Sep  2 2012 15:37:04
Writing library                          : libebml v1.2.3 + libmatroska v1.3.0

Video
ID                                       : 1
Format                                   : AVC
Format/Info                              : Advanced Video Codec
Format profile                           : High@L4.1
Format settings, CABAC                   : Yes
Format settings, ReFrames                : 4 frames
Codec ID                                 : V_MPEG4/ISO/AVC
Duration                                 : 1h 38mn
Bit rate                                 : 9 190 Kbps
Width                                    : 1 920 pixels
Height                                   : 1 080 pixels
Display aspect ratio                     : 16:9
Frame rate                               : 23.976 fps
Color space                              : YUV
Chroma subsampling                       : 4:2:0
Bit depth                                : 8 bits
Scan type                                : Progressive
Bits/(Pixel*Frame)                       : 0.185
Stream size                              : 6.15 GiB (79%)
Title                                    : Tehasskaja reznja benzopiloj.(2003).BDRip.1080p.[denis100]
Writing library                          : x264 core 138 r2358 9e941d1
Encoding settings                        : cabac=1 / ref=4 / deblock=1:-3:-3 / analyse=0x3:0x133 / me=umh / subme=11 / psy=1 / psy_rd=1.00:0.15 / mixed_ref=1 / me_range=48 / chroma_me=1 / trellis=2 / 8x8dct=1 / cqm=0 / deadzone=21,11 / fast_pskip=0 / chroma_qp_offset=-3 / threads=6 / lookahead_threads=1 / sliced_threads=0 / nr=0 / decimate=1 / interlaced=0 / bluray_compat=0 / constrained_intra=0 / bframes=8 / b_pyramid=2 / b_adapt=2 / b_bias=0 / direct=3 / weightb=1 / open_gop=0 / weightp=2 / keyint=240 / keyint_min=23 / scenecut=40 / intra_refresh=0 / rc=2pass / mbtree=0 / bitrate=9190 / ratetol=1.0 / qcomp=0.60 / qpmin=0 / qpmax=69 / qpstep=4 / cplxblur=20.0 / qblur=0.5 / ip_ratio=1.40 / pb_ratio=1.30 / aq=2:0.90
Language                                 : English
Default                                  : Yes
Forced                                   : No

Audio #1
ID                                       : 2
Format                                   : AC-3
Format/Info                              : Audio Coding 3
Mode extension                           : CM (complete main)
Codec ID                                 : A_AC3
Duration                                 : 1h 38mn
Bit rate mode                            : Constant
Bit rate                                 : 448 Kbps
Channel(s)                               : 6 channels
Channel positions                        : Front: L C R, Side: L R, LFE
Sampling rate                            : 48.0 KHz
Bit depth                                : 16 bits
Compression mode                         : Lossy
Stream size                              : 315 MiB (4%)
Title                                    : Дублированный
Language                                 : Russian
Default                                  : Yes
Forced                                   : No

Audio #2
ID                                       : 3
Format                                   : AC-3
Format/Info                              : Audio Coding 3
Mode extension                           : CM (complete main)
Codec ID                                 : A_AC3
Duration                                 : 1h 38mn
Bit rate mode                            : Constant
Bit rate                                 : 384 Kbps
Channel(s)                               : 6 channels
Channel positions                        : Front: L C R, Side: L R, LFE
Sampling rate                            : 48.0 KHz
Bit depth                                : 16 bits
Compression mode                         : Lossy
Stream size                              : 270 MiB (3%)
Title                                    : Профессиональный многоголосый закадровый
Language                                 : Russian
Default                                  : No
Forced                                   : No

Audio #3
ID                                       : 4
Format                                   : AC-3
Format/Info                              : Audio Coding 3
Mode extension                           : CM (complete main)
Codec ID                                 : A_AC3
Duration                                 : 1h 38mn
Bit rate mode                            : Constant
Bit rate                                 : 640 Kbps
Channel(s)                               : 6 channels
Channel positions                        : Front: L C R, Side: L R, LFE
Sampling rate                            : 48.0 KHz
Bit depth                                : 16 bits
Compression mode                         : Lossy
Stream size                              : 450 MiB (6%)
Title                                    : Авторский - М. Чадов
Language                                 : Russian
Default                                  : No
Forced                                   : No

Audio #4
ID                                       : 5
Format                                   : AC-3
Format/Info                              : Audio Coding 3
Mode extension                           : CM (complete main)
Codec ID                                 : A_AC3
Duration                                 : 1h 38mn
Bit rate mode                            : Constant
Bit rate                                 : 640 Kbps
Channel(s)                               : 6 channels
Channel positions                        : Front: L C R, Side: L R, LFE
Sampling rate                            : 48.0 KHz
Bit depth                                : 16 bits
Compression mode                         : Lossy
Stream size                              : 450 MiB (6%)
Title                                    : English
Language                                 : English
Default                                  : No
Forced                                   : No

Text
ID                                       : 6
Format                                   : UTF-8
Codec ID                                 : S_TEXT/UTF8
Codec ID/Info                            : UTF-8 Plain Text
Title                                    : Russian
Language                                 : Russian
Default                                  : No
Forced                                   : No

Menu
00:00:00.000                             : en:00:00:00.000
00:02:48.377                             : en:00:02:48.377
00:08:26.923                             : en:00:08:26.923
00:13:25.972                             : en:00:13:25.972
00:18:05.126                             : en:00:18:05.126
00:24:03.275                             : en:00:24:03.275
00:32:38.373                             : en:00:32:38.373
00:37:27.162                             : en:00:37:27.162
00:41:24.232                             : en:00:41:24.232
00:46:14.105                             : en:00:46:14.105
00:55:38.418                             : en:00:55:38.418
01:01:01.575                             : en:01:01:01.575
01:05:47.735                             : en:01:05:47.735
01:11:40.338                             : en:01:11:40.338
01:19:24.009                             : en:01:19:24.009
01:26:00.447                             : en:01:26:00.447
01:31:49.254                             : en:01:31:49.254
01:32:48.730                             : en:01:32:48.730

pb.wtf



Скачать Техасская резня бензопилой через торрент http://i66.fastpic.ru/big/2014/1031/87/0632f6c0c768a95507c4a0955ca98787.png Скачать фильм Техасская резня бензопилой через торрент бесплантно в хорошем качестве Описание::В штате Техас на ферме обычного работника скотобойни Томаса Хьюитта полиция обнаружила 33 изувеченных человеческих тела. ... 10 10 2
Торрент: Зарегистрирован [2014-10-31 10:46] · скачан: 61 раз
Статус: √ проверено
Размер: 7.76 GB
Как cкачать? Как скачать Техасская резня бензопилой через торрент | qTorrent

% Раздел Тема Автор DL S | L
Фильмы 2006-2008 [ 1.8 GB ] Техасская резня бензопилой / The Texas Chainsaw Massacre [2003 BDRip ] winchester00100010 Скачать
1 | 0
Фильмы [HD 720p, 1080p] (Хороший звук DUB, MVO) [ 13.1 GB ] Техасская резня бензопилой / The Texas Chainsaw Massacre [2003 BDRip 1080p by msltel] DUB 2 x DVO 2 x AVO msltel Скачать
1 | 0
Фильмы [HD 720p, 1080p] (Хороший звук DUB, MVO) [ 5.57 GB ] Техасская резня бензопилой / The Texas Chainsaw Massacre [2003 BDRip 720p by msltel] DUB 2 x DVO 2 x AVO msltel Скачать
1 | 0
Фильмы (Blu-ray, BD-Remux, HDDVD) [ 25.28 GB ] Техасская резня бензопилой / The Texas Chainsaw Massacre [2003 ремейк BDRemux 1080p] DUB + DVO + AVO sheker187 Скачать
1 | 0
Фильмы 2001-2005 [ 2.19 GB ] Техасская резня бензопилой / The Texas Chainsaw Massacre [2003 HDRip-AVC ] winchester00100010 Скачать
1 | 0
Фильмы 2006-2008 [ 2.46 GB ] Техасская резня бензопилой: Начало / The Texas Chainsaw Massacre: The Beginning [2006 HDRip-AVC ] [Theatrical Cut] winchester00100010 Скачать
1 | 0
Сборники (HD Video) [ 13.53 GB ] Техасская резня бензопилой: Трилогия / The Texas Chainsaw Massacre: Trilogy [200320062013 BDRip 720] VintMosina Скачать
1 | 0

28-11-2019 20:33  

Отключить всю рекламу на сайте

    Дорогой пользователь! Огромная просьба, поблагодарите релизера, оцените раздачу и оставьте свои комментарий, если Вы скачали Техасская резня бензопилой через торрент бесплатно! Внесите свою лепту в развитие PiratBit!
    Комментировать посты могут только пользователи прошедшие не сложную регистрацию
    Показать сообщения:    

    Техасская резня бензопилой через торрент
    Скачать бесплатно Техасская резня бензопилой
    Техасская резня бензопилой скачать торрент
    Техасская резня бензопилой смотреть онлайн
    Cкачать фильм Техасская резня бензопилой бесплатно
    Техасская резня бензопилой скачать торрент в хорошем качестве
    Техасская резня бензопилой смотреть онлайн бесплатно в хорошем качестве


    Вы не можете начинать темы
    Вы не можете отвечать на сообщения
    Вы не можете редактировать свои сообщения
    Вы не можете удалять свои сообщения
    Вы не можете голосовать в опросах
    Вы не можете прикреплять файлы к сообщениям
    Вы можете скачивать файлы