Ссылка на приватное зеркало нашего сайта всего за 1$. Внимание количество ограничено!!!

2 сезон

iTunes

1 сезон

1

iTunes

iTunes

iTunes

1 сезон

RePack

30

ИГРА 18+

pack

ВАЖНО

!!Акция!!

Alien_RageХит недели

RePack

MK11
pack

Забери бонус

RePack

jed

!!Акция!!

Alien_Rage

RePack

fifa19

RePack

Assassins Creed: Odyssey

RePack

NEED FOR SPEED™ PAYBACK

4 сезон

9 сезон

Бесстыжие 9 сезон

Все сериалы

все сериалы на PB.wtf

RePack

FAR CRY 5
  

Техасская резня бензопилой: Начало / The Texas Chainsaw Massacre: The Beginning (Джонатан Либесман ) [2006, ужасы, триллер, BDRip 1080p, Дублированный - [Лицензия] Профессиональный (двухголосый) [П.Гланц и И.Королева] pb.wtf

Техасская резня бензопилой: Начало через торрент pb.wtf

Размер: 7.76 GB | Добавлен: 5 лет 11 мес. назад | Торрент скачан:66 раз
Скачать  

31-10-2014 11:03 Техасская резня бензопилой: Начало Скачать торрент  

Техасская резня бензопилой: Начало / The Texas Chainsaw Massacre: The Beginning
«Узнай, как рождается страх!»


Год выпуска: 2006
Страна: США
Жанр: ужасы, триллер
Продолжительность: 01:30:50
Перевод: Дублированный , Профессиональный (двухголосый) [П.Гланц и И.Королева]
Субтитры: русские (Russian)

Режиссер: Джонатан Либесман
В ролях: Джордана Брюстер , Тейлор Хэндли , Диора Бэрд , Мэтт Бомер , Р. Ли Эрми , Эндрю Бринярски , Ли Тергесен , Терренс Эванс , Кэти Ламкин , Мэриетта Мэрич , Л.А. Кэлкинс , Тим Де Зарн
Описание::
Братья вместе со своими подружками отправляются в автомобильное путешествие, которое должно стать последним развлечением до того, как их отправят служить во Вьетнам.
По дороге они попадают в аварию, и тут появляется местный шериф, знакомство с которым становится началом сущего кошмара: они оказываются в мрачном доме, в стенах которого воспитывается беспощадный убийца по прозвищу Кожаное Лицо...

Качество: BDRip 1080p (исходник Blu-ray)
Контейнер (Расширение): MKV
Видео кодек: AVC
Аудио кодек: AC3
Видео: 1920x1080 (16:9), 10566 Кбит/сек, 23,976 кадр/сек, 0,213 Бит/[Пиксели*Кадры]
Аудио №1: русский / AC3 / 5.1 / 48 kHz / 384 kbps / 16 bit |Дублированный|
Аудио №2: русский / AC3 / 5.1 / 48 kHz / 640 kbps / 16 bit |Профессиональный (двухголосый) [П.Гланц и И.Королева]|
Аудио №3: английский / AC3 / 5.1 / 48 kHz / 640 kbps / 16 bit
Навигация по главам(Чаптеры): естьАвтор рипа: Сообщество:

Код:

Format                                   : Matroska
Format version                           : Version 2
File size                                : 7.76 GiB
Duration                                 : 1h 30mn
Overall bit rate                         : 12.2 Mbps
Movie name                               : Tehasskaja reznja benzopiloj: Nachalo.(2006).BDRip.1080p.[denis100]
Encoded date                             : UTC 2014-06-24 06:44:38
Writing application                      : mkvmerge v5.8.0 ('No Sleep / Pillow') built on Sep  2 2012 15:37:04
Writing library                          : libebml v1.2.3 + libmatroska v1.3.0

Video
ID                                       : 1
Format                                   : AVC
Format/Info                              : Advanced Video Codec
Format profile                           : High@L4.1
Format settings, CABAC                   : Yes
Format settings, ReFrames                : 4 frames
Codec ID                                 : V_MPEG4/ISO/AVC
Duration                                 : 1h 30mn
Bit rate                                 : 10.6 Mbps
Width                                    : 1 920 pixels
Height                                   : 1 080 pixels
Display aspect ratio                     : 16:9
Frame rate                               : 23.976 fps
Color space                              : YUV
Chroma subsampling                       : 4:2:0
Bit depth                                : 8 bits
Scan type                                : Progressive
Bits/(Pixel*Frame)                       : 0.213
Stream size                              : 6.55 GiB (84%)
Title                                    : Tehasskaja reznja benzopiloj: Nachalo.(2006).BDRip.1080p.[denis100]
Writing library                          : x264 core 138 r2358 9e941d1
Encoding settings                        : cabac=1 / ref=4 / deblock=1:-3:-3 / analyse=0x3:0x133 / me=umh / subme=11 / psy=1 / psy_rd=1.00:0.15 / mixed_ref=1 / me_range=32 / chroma_me=1 / trellis=2 / 8x8dct=1 / cqm=0 / deadzone=21,11 / fast_pskip=0 / chroma_qp_offset=-3 / threads=6 / lookahead_threads=1 / sliced_threads=0 / nr=0 / decimate=1 / interlaced=0 / bluray_compat=0 / constrained_intra=0 / bframes=6 / b_pyramid=2 / b_adapt=2 / b_bias=0 / direct=3 / weightb=1 / open_gop=0 / weightp=2 / keyint=240 / keyint_min=23 / scenecut=40 / intra_refresh=0 / rc=2pass / mbtree=0 / bitrate=10566 / ratetol=1.0 / qcomp=0.60 / qpmin=0 / qpmax=69 / qpstep=4 / cplxblur=20.0 / qblur=0.5 / ip_ratio=1.40 / pb_ratio=1.30 / aq=2:0.90
Language                                 : English
Default                                  : Yes
Forced                                   : No

Audio #1
ID                                       : 2
Format                                   : AC-3
Format/Info                              : Audio Coding 3
Mode extension                           : CM (complete main)
Codec ID                                 : A_AC3
Duration                                 : 1h 30mn
Bit rate mode                            : Constant
Bit rate                                 : 384 Kbps
Channel(s)                               : 6 channels
Channel positions                        : Front: L C R, Side: L R, LFE
Sampling rate                            : 48.0 KHz
Bit depth                                : 16 bits
Compression mode                         : Lossy
Stream size                              : 249 MiB (3%)
Title                                    : Дублированный
Language                                 : Russian
Default                                  : Yes
Forced                                   : No

Audio #2
ID                                       : 3
Format                                   : AC-3
Format/Info                              : Audio Coding 3
Mode extension                           : CM (complete main)
Codec ID                                 : A_AC3
Duration                                 : 1h 30mn
Bit rate mode                            : Constant
Bit rate                                 : 640 Kbps
Channel(s)                               : 6 channels
Channel positions                        : Front: L C R, Side: L R, LFE
Sampling rate                            : 48.0 KHz
Bit depth                                : 16 bits
Compression mode                         : Lossy
Stream size                              : 416 MiB (5%)
Title                                    : Профессиональный, двухголосый - П.Гланц и И.Королева
Language                                 : Russian
Default                                  : No
Forced                                   : No

Audio #3
ID                                       : 4
Format                                   : AC-3
Format/Info                              : Audio Coding 3
Mode extension                           : CM (complete main)
Codec ID                                 : A_AC3
Duration                                 : 1h 30mn
Bit rate mode                            : Constant
Bit rate                                 : 640 Kbps
Channel(s)                               : 6 channels
Channel positions                        : Front: L C R, Side: L R, LFE
Sampling rate                            : 48.0 KHz
Bit depth                                : 16 bits
Compression mode                         : Lossy
Stream size                              : 416 MiB (5%)
Title                                    : English
Language                                 : English
Default                                  : No
Forced                                   : No

Text
ID                                       : 5
Format                                   : UTF-8
Codec ID                                 : S_TEXT/UTF8
Codec ID/Info                            : UTF-8 Plain Text
Title                                    : Russian
Language                                 : Russian
Default                                  : No
Forced                                   : No

Menu
00:00:00.000                             : en:00:00:00.000
00:12:13.733                             : en:00:12:13.733
00:22:36.522                             : en:00:22:36.522
00:33:00.729                             : en:00:33:00.729
00:41:23.398                             : en:00:41:23.398
00:51:22.246                             : en:00:51:22.246
01:02:43.468                             : en:01:02:43.468
01:12:52.535                             : en:01:12:52.535
01:25:35.964                             : en:01:25:35.964

pb.wtf



Скачать Техасская резня бензопилой: Начало через торрент http://i66.fastpic.ru/big/2014/1031/2c/ca539d20b4bb2d5cc71f8fbc31b5b12c.png Скачать фильм Техасская резня бензопилой: Начало через торрент бесплантно в хорошем качестве Описание::Братья вместе со своими подружками отправляются в автомобильное путешествие, которое должно стать последним развлечением до того, ... 10 10 5
Торрент: Зарегистрирован [2014-10-31 11:03] · скачан: 66 раз
Статус: √ проверено
Размер: 7.76 GB
Как cкачать? Как скачать Техасская резня бензопилой: Начало через торрент | qTorrent

% Раздел Тема Автор DL S | L
Фильмы 2006-2008 [ 2.46 GB ] Техасская резня бензопилой: Начало / The Texas Chainsaw Massacre: The Beginning [2006 HDRip-AVC ] [Theatrical Cut] winchester00100010 Скачать
1 | 0
Фильмы (BDRip, HDrip-AVC) (48-60 fps) [ 3.4 GB ] Техасская резня бензопилой: Начало / The Texas Chainsaw Massacre: The Beginning [2006 BDRip-AVC DUB] 60fps / от R.G. HD-Films Ressident Скачать
1 | 0
Фильмы 2006-2008 [ 1.75 GB ] Техасская резня бензопилой: Начало / The Texas Chainsaw Massacre: The Beginning [200 BDRip ] stalone Скачать
1 | 0
Фильмы 2006-2008 [ 1.45 GB ] Техасская резня бензопилой: Начало / The Texas Chainsaw Massacre: The Beginning [2006 HDTV] nitles666 Скачать
1 | 0

28-11-2019 20:33  

Отключить всю рекламу на сайте

07-12-2014 01:13 Техасская резня бензопилой: Начало Скачать торрент  

спасибpb.wtf



    Дорогой пользователь! Огромная просьба, поблагодарите релизера, оцените раздачу и оставьте свои комментарий, если Вы скачали Техасская резня бензопилой: Начало через торрент бесплатно! Внесите свою лепту в развитие PiratBit!
    Комментировать посты могут только пользователи прошедшие не сложную регистрацию
    Показать сообщения:    

    Техасская резня бензопилой: Начало через торрент
    Скачать бесплатно Техасская резня бензопилой: Начало
    Техасская резня бензопилой: Начало скачать торрент
    Техасская резня бензопилой: Начало смотреть онлайн
    Cкачать фильм Техасская резня бензопилой: Начало бесплатно
    Техасская резня бензопилой: Начало скачать торрент в хорошем качестве
    Техасская резня бензопилой: Начало смотреть онлайн бесплатно в хорошем качестве


    Вы не можете начинать темы
    Вы не можете отвечать на сообщения
    Вы не можете редактировать свои сообщения
    Вы не можете удалять свои сообщения
    Вы не можете голосовать в опросах
    Вы не можете прикреплять файлы к сообщениям
    Вы можете скачивать файлы