Ссылка на приватное зеркало нашего сайта всего за 1$. Внимание количество ограничено!!!

2 сезон

iTunes

1 сезон

1

iTunes

iTunes

iTunes

1 сезон

RePack

30

ИГРА 18+

pack

ВАЖНО

!!Акция!!

Alien_RageХит недели

RePack

MK11
pack

Забери бонус

RePack

jed

!!Акция!!

Alien_Rage

RePack

fifa19

RePack

Assassins Creed: Odyssey

RePack

NEED FOR SPEED™ PAYBACK

4 сезон

9 сезон

Бесстыжие 9 сезон

Все сериалы

все сериалы на PB.wtf

RePack

FAR CRY 5
  

Не вижу зла / See No Evil (Грегори Дарк) [2006 г., ужасы, триллер, BDRip 1080p, Профессиональный многоголосый] pb.wtf

Не вижу зла через торрент pb.wtf

Размер: 8.33 GB | Добавлен: 5 лет 11 мес. назад | Торрент скачан:64 раза
Скачать  

31-10-2014 13:15 Не вижу зла Скачать торрент  

Не вижу зла / See No Evil
Год выпуска: 2006
Страна: США
Жанр: ужасы, триллер
Продолжительность: 84 мин. / 01:24
Перевод: Профессиональный многоголосый

Режиссер: Грегори Дарк
Продюссер: Джоэль Саймон, Шарлотт Блейк, Джед Блаугрунд
Сценарий: Дэн Мэдигэн

Бюджет: $8 000 000
Премьера в мире: 19 мая 2006

IMDB 5.10 (18 865)


В ролях: Глен Джейкобс, Кристина Видал, Майкл Дж. Паган, Саманта Ноубл, Стивен Видлер, Сесиль Полсон, Люк Пеглер, Рэйчел Тейлор, Пенни МакНэми, Крэйг Хорнер, Жанна Никонова, Андрей Бархударов, Пётр Иващенко, Наталья Фищук, Алексей Иващенко

Описание: В заброшенном, обветшалом отеле обитает психопат-отшельник Джекоб Гуднайт, в череп которого вставлена стальная пластина. Этот двухметровый верзила весом 180 кг вырывает глаза своим жертвам острыми, как бритва, ногтями...Однажды в жилище Джекоба вторгаются восемь юных правонарушителей, отправленных приводить в порядок эту богом забытую гостиницу; за ними присматривает полицейский, который четыре года назад пустил Джекобу пулю в лоб. Когда же маньяк похищает девушку, входившую в состав группы, и ее жизнь оказывается под угрозой, остальным ребятам приходится приложить все свои силы для борьбы с неуязвимым злодеем...

Качество: BDRip 1080p
Формат: MKV
Видео кодек: MPEG4
Аудио кодек: DTS
Видео: MPEG-4 AVC, 11.6 Мбит/сек, 1920x1080
Аудио#1: Русский (DTS, 6 ch, 768 Кбит/с) 48,0 КГц
Аудио#2: Английский (DTS, 6 ch, 1536 Кбит/с) 48,0 КГц
скриншот  скриншот  скриншот  скриншот  



Общее
Уникальный идентификатор : 217659668576869525192224077893706068845 (0xA3BFBA32F03FEC5EA250A569D67E336D)
Полное имя : D:\DOWNLOADS\See.No.Evil.2006.BDRip.1080p.mkv
Формат : Matroska
Версия формата : Version 2
Размер файла : 8,33 Гбайт
Продолжительность : 1 ч. 24 м.
Общий поток : 14,2 Мбит/сек
Название фильма : See No Evil (2006) [Olympus HDFilms]
Дата кодирования : UTC 2009-09-09 00:49:59
Программа кодирования : mkvmerge v2.9.7 ('Tenderness') built on Jul 1 2009 18:43:35
Библиотека кодирования : libebml v0.7.7 + libmatroska v0.8.1

Видео
Идентификатор : 1
Формат : AVC
Формат/Информация : Advanced Video Codec
Профиль формата : High@L4.1
Параметр CABAC формата : Да
Параметр ReFrames формата : 4 кадра
Идентификатор кодека : V_MPEG4/ISO/AVC
Продолжительность : 1 ч. 24 м.
Битрейт : 11,9 Мбит/сек
Ширина : 1920 пикселей
Высота : 1080 пикселей
Соотношение сторон : 16:9
Режим частоты кадров : Постоянный
Частота кадров : 23,976 кадра/сек
Цветовое пространство : YUV
Субдискретизация насыщенности : 4:2:0
Битовая глубина : 8 бит
Тип развёртки : Прогрессивная
Бит/(Пиксели*Кадры) : 0.240
Размер потока : 6,84 Гбайт (82%)
Заголовок : 11.9mbps x264 1080p
Библиотека кодирования : x264 core 68 r1183M f21daff
Настройки программы : cabac=1 / ref=4 / deblock=1:-3:-3 / analyse=0x3:0x133 / me=umh / subme=9 / psy_rd=1.0:0.0 / mixed_ref=1 / me_range=32 / chroma_me=1 / trellis=2 / 8x8dct=1 / cqm=0 / deadzone=21,11 / chroma_qp_offset=-2 / threads=6 / nr=0 / decimate=1 / mbaff=0 / bframes=3 / b_pyramid=1 / b_adapt=2 / b_bias=0 / direct=3 / wpredb=1 / keyint=250 / keyint_min=25 / scenecut=40 / rc=2pass / bitrate=11936 / ratetol=1.0 / qcomp=0.60 / qpmin=10 / qpmax=51 / qpstep=4 / cplxblur=20.0 / qblur=0.5 / vbv_maxrate=50000 / vbv_bufsize=50000 / ip_ratio=1.40 / pb_ratio=1.30 / aq=1:0.80
Язык : English
Default : Да
Forced : Нет

Аудио #1
Идентификатор : 2
Формат : DTS
Формат/Информация : Digital Theater Systems
Режим : 16
Параметр Endianness формата : Big
Идентификатор кодека : A_DTS
Продолжительность : 1 ч. 24 м.
Вид битрейта : Постоянный
Битрейт : 755 Кбит/сек
Каналы : 6 каналов
Расположение каналов : Front: L C R, Side: L R, LFE
Частота : 48,0 КГц
Битовая глубина : 24 бит
Метод сжатия : С потерями
Размер потока : 453 Мбайт (5%)
Заголовок : 755kbps 6ch DTS
Язык : Russian
Default : Да
Forced : Нет

Аудио #2
Идентификатор : 3
Формат : DTS
Формат/Информация : Digital Theater Systems
Режим : 16
Параметр Endianness формата : Big
Идентификатор кодека : A_DTS
Продолжительность : 1 ч. 24 м.
Вид битрейта : Постоянный
Битрейт : 1509 Кбит/сек
Каналы : 6 каналов
Расположение каналов : Front: L C R, Side: L R, LFE
Частота : 48,0 КГц
Битовая глубина : 24 бит
Метод сжатия : С потерями
Размер потока : 907 Мбайт (11%)
Заголовок : 1510kbps 6ch DTS
Язык : English
Default : Нет
Forced : Нет

Меню
00:00:00.000 : en:00:00:00.000
00:05:00.000 : en:00:05:00.000
00:10:00.000 : en:00:10:00.000
00:15:00.000 : en:00:15:00.000
00:20:00.000 : en:00:20:00.000
00:25:00.000 : en:00:25:00.000
00:30:00.000 : en:00:30:00.000
00:35:00.000 : en:00:35:00.000
00:40:00.000 : en:00:40:00.000
00:45:00.000 : en:00:45:00.000
00:50:00.000 : en:00:50:00.000
00:55:00.000 : en:00:55:00.000
01:00:00.000 : en:01:00:00.000
01:05:00.000 : en:01:05:00.000
01:10:00.000 : en:01:10:00.000
01:15:00.000 : en:01:15:00.000
01:20:00.000 : en:01:20:00.000


Не вижу зла скачать торрент


pb.wtf



Скачать Не вижу зла через торрент http://pic.kartinco.top/images/7/tt1zy.jpg Скачать фильм Не вижу зла через торрент бесплантно в хорошем качестве Описание: В заброшенном, обветшалом отеле обитает психопат-отшельник Джекоб Гуднайт, в череп которого вставлена стальная пластина. Этот ... 10 10 4
Торрент: Зарегистрирован [2014-10-31 13:15] · скачан: 64 раз
Статус: √ проверено
Размер: 8.33 GB
Как cкачать? Как скачать Не вижу зла через торрент | qTorrent

% Раздел Тема Автор DL S | L
Фильмы 2014 [DVDrip, WEB-DLRip, HDrip] [ 1.86 GB ] Не вижу зла 2 / See No Evil 2 [2014 BDRip-AVC MVO VO] winchester00100010 Скачать
1 | 0
Фильмы 2006-2008 [ 2.31 GB ] Не вижу зла / See No Evil [2006 BDRip-AVC ] winchester00100010 Скачать
1 | 0
Фильмы (Blu-ray, BD-Remux, HDDVD) [ 16.81 GB ] Не вижу зла 2 / See No Evil 2 [2014 BDRemux 1080p] MVO Ворон Скачать
1 | 0
Фильмы [HD 720p, 1080p] (Хороший звук DUB, MVO) [ 4.7 GB ] Не вижу зла 2 / See No Evil 2 [2014 BDRip 720p Любительский многоголосый] TeSo33 Скачать
1 | 0
Фильмы 2014 [DVDrip, WEB-DLRip, HDrip] [ 1.44 GB ] Не вижу зла 2 / See No Evil 2 [2014 HDRip MVO] Ворон Скачать
1 | 0
T Фильмы 2014 (Звук TS, Cam, VO, DVO) [ 1.27 GB ] Не вижу зла 2 / See No Evil 2 [2014 HDRip Любительский [МЕГАПЫХАРЬ] GEKADOL Скачать
1 | 0
Фильмы 2006-2008 [ 1.45 GB ] Не вижу зла / See No Evil [2006 BDRip] GEKADOL Скачать
1 | 0


Последний раз редактировалось: TeSo33 (2014-10-31 19:02), всего редактировалось 2 раз(а)

28-11-2019 20:33  

Отключить всю рекламу на сайте

    Дорогой пользователь! Огромная просьба, поблагодарите релизера, оцените раздачу и оставьте свои комментарий, если Вы скачали Не вижу зла через торрент бесплатно! Внесите свою лепту в развитие PiratBit!
    Комментировать посты могут только пользователи прошедшие не сложную регистрацию
    Показать сообщения:    

    Не вижу зла через торрент
    Скачать бесплатно Не вижу зла
    Не вижу зла скачать торрент
    Не вижу зла смотреть онлайн
    Cкачать фильм Не вижу зла бесплатно
    Не вижу зла скачать торрент в хорошем качестве
    Не вижу зла смотреть онлайн бесплатно в хорошем качестве


    Вы не можете начинать темы
    Вы не можете отвечать на сообщения
    Вы не можете редактировать свои сообщения
    Вы не можете удалять свои сообщения
    Вы не можете голосовать в опросах
    Вы не можете прикреплять файлы к сообщениям
    Вы можете скачивать файлы