2 сезон

iTunes

MVO

1

2 сезон

iTunes

iTunes

1 сезон

RePack

30

Ultimate

ВАЖНО

ИГРА 18+

pack

RePack

MK11
pack

Легкие деньги

RePack

jed

RePack

fifa19

RePack

RDR2

RePack

NEED FOR SPEED™ PAYBACK

4 сезон

9 сезон

Бесстыжие 9 сезон

Все сериалы

все сериалы на PB.wtf

RePack

FAR CRY 5

Anonymous, добрый день, мы не успеваем собрать деньги на оплату серверов за декабрь и январь, помогите нам пожалуйста в это трудное время. В качестве благодарности мы отключим Вам всю рекламу на сайте (укажите свой ник в строку Ваше имя)!

×
  
Magnet ссылка

Побудь в моей шкуре / Under the Skin (Джонатан Глейзер / Jonathan Glazer) [2013, Великобритания, США, Швейцария, фантастика, триллер, драма, HDRip, Профессиональный многоголосый [Лицензия] pb.wtf

Побудь в моей шкуре через торрент pb.wtf

Размер: 1.37 GB | Добавлен: 6 лет 2 мес. назад | Торрент скачан:1064 раза
Скачать  

31-10-2014 13:52 Побудь в моей шкуре Скачать торрент  

Побудь в моей шкуре / Under the Skin

Год выпуска: 2013
Страна: Великобритания, США, Швейцария
Жанр: фантастика, триллер, драма
Продолжительность: 01:48:16
Перевод: Профессиональный многоголосый [Лицензия]
Режиссер: Джонатан Глейзер / Jonathan Glazer
В ролях: Скарлетт Йоханссон, Джереми МакУильямс, Линси Тейлор Маккэй, Даги МакКоннелл, Кевин МакАлинден, Д. Мид, Эндрю Горман, Джо Шула, Криштоф Гадек, Рой Армстронг, Элисон Чанд, Бен Миллс

Описание:
Таинственная соблазнительница охотится на жителей Шотландии...
Рейтинг:

MPAA: R - Лицам до 17 лет обязательно присутствие взрослого
Качество: HDRip
Формат: AVI
Видео кодек: XviD
Аудио кодек:AC3
Видео: XviD, 720x384 (1.875), 1349 kbps, 23,976 fps, 0,204 bpp
Аудио: AC3 / 5.1 / 48 kHz / 448 kbps / 16 bit

General
Complete name : D:\Торенты\Pobud.v.moey.Shkure.2013.P.HDRip.1400Mb.avi
Format : AVI
Format/Info : Audio Video Interleave
File size : 1.37 GiB
Duration : 1h 48mn
Overall bit rate : 1 807 Kbps
Writing application : VirtualDubMod 1.5.10.2 (build 2540/release)
Writing library : VirtualDubMod build 2540/release

Video
ID : 0
Format : MPEG-4 Visual
Format profile : Advanced Simple@L5
Format settings, BVOP : 2
Format settings, QPel : No
Format settings, GMC : No warppoints
Format settings, Matrix : Default (MPEG)
Codec ID : XVID
Codec ID/Hint : XviD
Duration : 1h 48mn
Bit rate : 1 350 Kbps
Width : 720 pixels
Height : 384 pixels
Display aspect ratio : 1.875
Frame rate : 23.976 fps
Color space : YUV
Chroma subsampling : 4:2:0
Bit depth : 8 bits
Scan type : Progressive
Compression mode : Lossy
Bits/(Pixel*Frame) : 0.204
Stream size : 1.02 GiB (75%)
Writing library : XviD 1.2.1 (UTC 2008-12-04)

Audio
ID : 1
Format : AC-3
Format/Info : Audio Coding 3
Mode extension : CM (complete main)
Codec ID : 2000
Duration : 1h 48mn
Bit rate mode : Constant
Bit rate : 448 Kbps
Channel(s) : 6 channels
Channel positions : Front: L C R, Side: L R, LFE
Sampling rate : 48.0 KHz
Bit depth : 16 bits
Compression mode : Lossy
Stream size : 347 MiB (25%)
Alignment : Split accross interleaves
Interleave, duration : 42 ms (1.00 video frame)
Interleave, preload duration : 500 ms
pb.wtf



Скачать Побудь в моей шкуре через торрент http://i65.fastpic.ru/big/2014/1031/e4/8c4433382938359437fd4d5adc9deee4.jpg Скачать фильм Побудь в моей шкуре через торрент бесплантно в хорошем качестве Описание: Таинственная соблазнительница охотится на жителей Шотландии...Рейтинг: MPAA: R - Лицам до 17 лет обязательно присутствие ... 9.2 10 26
Info! Золотая раздача, скачанное не засчитывается.
Торрент: Зарегистрирован [2014-10-31 13:52] · скачан: 1 064 раз
Статус: √ проверено
Размер: 1.37 GB
Как cкачать? Как скачать Побудь в моей шкуре через торрент | UTorrent

% Раздел Тема Автор DL S | L
R.G. Resident & PiratVoice - Фильмы, Видео [ 2.02 GB ] Побудь в моей шкуре / Under the Skin [2013 HDRip ] от R.G. Resident Dean24 Скачать
2 | 0
Фильмы (Blu-ray, BD-Remux, HDDVD) [ 17.33 GB ] Побудь в моей шкуре / Under the Skin [2013 многоголосый AVO BDRemux 1080p ] кэп Скачать
1 | 0
Фильмы 2013 [DVDrip, WEB-DLRip, HDrip] [ 2.05 GB ] Побудь в моей шкуре / Under the Skin [2013 Швейцария HDRip многоголосый - ] _KaisiK_ Скачать
1 | 0
Фильмы с авторской озвучкой [ 3.66 GB ] Побудь в моей шкуре / Under the Skin [2013 Швейцария WEB-DL 720p Авторский Ворон Скачать
1 | 0
Фильмы (DVD фильмы) [ 4.05 GB ] Побудь в моей шкуре / Under the Skin [2013 DVD5] R5 voovaz Скачать
1 | 0
Фильмы [HD 720p, 1080p] (Хороший звук DUB, MVO) [ 8.39 GB ] Побудь в моей шкуре / Under the Skin [2013 BDRip 1080p многоголосый ] кэп Скачать
1 | 0
Фильмы [HD 720p, 1080p] (Хороший звук DUB, MVO) [ 5.01 GB ] Побудь в моей шкуре / Under the Skin [2013 BDRip 720p многоголосый ] кэп Скачать
1 | 0

28-11-2019 20:33  

Отключить всю рекламу на сайте

03-11-2014 20:53 Побудь в моей шкуре Скачать торрент  

неоднозначный фильм. состояние жуткое после него.pb.wtf



06-11-2014 21:43 Побудь в моей шкуре Скачать торрент  

Проходите мимо. Мне ужасно не понравился фильм.pb.wtf



10-11-2014 17:22 Побудь в моей шкуре Скачать торрент  

блин повёлся на Скарлет.Бред полнейший. По десятибальной шкале 2pb.wtf



30-11-2014 17:43 Побудь в моей шкуре Скачать торрент  

komboi008 писал(а):

блин повёлся на Скарлет.Бред полнейший. По десятибальной шкале 2

нет, 0 из10 - фильм ни о чём!pb.wtf



04-12-2015 13:49 Побудь в моей шкуре Скачать торрент  

полный бредpb.wtf



    Дорогой пользователь! Огромная просьба, поблагодарите релизера, оцените раздачу и оставьте свои комментарий, если Вы скачали Побудь в моей шкуре через торрент бесплатно! Внесите свою лепту в развитие PiratBit!
    Комментировать посты могут только пользователи прошедшие не сложную регистрацию
    Показать сообщения:    

    Побудь в моей шкуре через торрент
    Скачать бесплатно Побудь в моей шкуре
    Побудь в моей шкуре скачать торрент
    Побудь в моей шкуре смотреть онлайн
    Cкачать фильм Побудь в моей шкуре бесплатно
    Побудь в моей шкуре скачать торрент в хорошем качестве
    Побудь в моей шкуре смотреть онлайн бесплатно в хорошем качестве


    Вы не можете начинать темы
    Вы не можете отвечать на сообщения
    Вы не можете редактировать свои сообщения
    Вы не можете удалять свои сообщения
    Вы не можете голосовать в опросах
    Вы не можете прикреплять файлы к сообщениям
    Вы можете скачивать файлы