Ссылка на приватное зеркало нашего сайта всего за 1$. Внимание количество ограничено!!!

2 сезон

iTunes

1 сезон

1

iTunes

iTunes

iTunes

1 сезон

RePack

30

ИГРА 18+

pack

ВАЖНО

!!Акция!!

Alien_RageХит недели

RePack

MK11
pack

Забери бонус

RePack

jed

!!Акция!!

Alien_Rage

RePack

fifa19

RePack

Assassins Creed: Odyssey

RePack

NEED FOR SPEED™ PAYBACK

4 сезон

9 сезон

Бесстыжие 9 сезон

Все сериалы

все сериалы на PB.wtf

RePack

FAR CRY 5
  

Григорий Р. / Сезон: 1 / Серии 1-8 из 8 (Андрей Малюков) [2014, Россия, драма, история, WEB-DL 1080p] pb.wtf

Григорий Р. через торрент pb.wtf

Размер: 11.13 GB | Добавлен: 5 лет 11 мес. назад | Торрент скачан:637 раз
Скачать  

31-10-2014 13:54 Григорий Р. Скачать торрент  

Григорий Р.

Год выпуска: 2014
Страна: Россия
Жанр: драма, история
Продолжительность: 00:48:18
Перевод: Не требуется
Режиссер: Андрей Малюков
В ролях: Владимир Машков (Григорий Распутин), Андрей Смоляков (Генрих Свиттен, следователь), Екатерина Климова (Анна Вырубова, фрейлина), Ингеборга Дапкунайте (императрица Александра Федоровна), Валерий Дегтярь (император Николай II), Владимир Кошевой (Феликс Юсупов), Никита Ефремов (князь Дмитрий), Борис Каморзин (Свистунов), Таисия Вилкова (Распутина Мария Григорьевна), Сергей Угрюмов (Керенский), Михаил Елисеев (Воейков), Анна Дюкова (Милица Черногорская, великая княгиня)

Описание:
Как неграмотный мужик смог стать «вторым Я» последней русской императрицы? Неужели дело только в том, что Распутин спасал больного наследника престола? Или была какая-то иная причина удивительной веры царской семьи в этого человека?..
Рейтинг:

Качество: WEB-DL 1080p
Формат: MKV
Видео кодек: AVC
Аудио кодек:AC3
Видео: AVC, 1920x1080 (16:9), 4000 kbps, 25 fps, 0,077 bpp
Аудио: русский / AC3 / 2.0 / 48 kHz / 192 kbps / 16 bit ||

General
Unique ID : 191702372262499953550796053152815575335 (0x903888AEA7FB40E0A4A64DFA995EF127)
Complete name : D:\Торенты\Кино\Grigorij.R.2014.WEB-DL.(1080p).MediaClub\Grigorij.R.(01.seriya.iz.08).2014.WEB-DL.(1080p).MediaClub.mkv
Format : Matroska
Format version : Version 2
File size : 1.41 GiB
Duration : 48mn 18s
Overall bit rate : 4 194 Kbps
Movie name : Grigorij.R.(01.seriya.iz.08).2014.WEB-DL.(1080p).MediaClub
Encoded date : UTC 2014-10-27 20:15:45
Writing application : mkvmerge v5.8.0 ('No Sleep / Pillow') built on Sep 2 2012 15:37:04
Writing library : libebml v1.2.3 + libmatroska v1.3.0

Video
ID : 1
Format : AVC
Format/Info : Advanced Video Codec
Format profile : High@L4.0
Format settings, CABAC : Yes
Format settings, ReFrames : 3 frames
Codec ID : V_MPEG4/ISO/AVC
Duration : 48mn 18s
Bit rate : 4 000 Kbps
Width : 1 920 pixels
Height : 1 080 pixels
Display aspect ratio : 16:9
Frame rate : 25.000 fps
Color space : YUV
Chroma subsampling : 4:2:0
Bit depth : 8 bits
Scan type : Progressive
Bits/(Pixel*Frame) : 0.077
Stream size : 1.32 GiB (93%)
Writing library : x264 core 142 r2389 956c8d8
Encoding settings : cabac=1 / ref=3 / deblock=1:0:0 / analyse=0x3:0x133 / me=umh / subme=7 / psy=1 / psy_rd=1.00:0.00 / mixed_ref=1 / me_range=32 / chroma_me=1 / trellis=2 / 8x8dct=1 / cqm=0 / deadzone=21,11 / fast_pskip=1 / chroma_qp_offset=-2 / threads=12 / lookahead_threads=2 / sliced_threads=0 / nr=0 / decimate=1 / interlaced=0 / bluray_compat=0 / constrained_intra=0 / bframes=0 / weightp=0 / keyint=75 / keyint_min=26 / scenecut=40 / intra_refresh=0 / rc_lookahead=50 / rc=2pass / mbtree=0 / bitrate=4000 / ratetol=1.0 / qcomp=0.20 / qpmin=10 / qpmax=51 / qpstep=4 / cplxblur=20.0 / qblur=0.5 / vbv_maxrate=5000 / vbv_bufsize=5000 / nal_hrd=none / filler=0 / ip_ratio=1.40 / aq=1:1.00
Default : Yes
Forced : Yes
Color primaries : BT.709-5, BT.1361, IEC 61966-2-4, SMPTE RP177
Transfer characteristics : BT.709-5, BT.1361
Matrix coefficients : BT.709-5, BT.1361, IEC 61966-2-4 709, SMPTE RP177

Audio
ID : 2
Format : AC-3
Format/Info : Audio Coding 3
Mode extension : CM (complete main)
Codec ID : A_AC3
Duration : 48mn 18s
Bit rate mode : Constant
Bit rate : 192 Kbps
Channel(s) : 2 channels
Channel positions : Front: L R
Sampling rate : 48.0 KHz
Bit depth : 16 bits
Compression mode : Lossy
Stream size : 66.3 MiB (5%)
Language : Russian
Default : Yes
Forced : Yes
pb.wtf



Скачать Григорий Р. через торрент http://i65.fastpic.ru/big/2014/1031/5b/6d815d6b4b0508fe63180c24ab17de5b.jpg Скачать фильм Григорий Р. через торрент бесплантно в хорошем качестве Описание: Как неграмотный мужик смог стать «вторым Я» последней русской императрицы? Неужели дело только в том, что Распутин спасал ... 10 10 21
Info! Золотая раздача, скачанное не засчитывается.
Торрент: Зарегистрирован [2014-10-31 13:54] · скачан: 637 раз
Статус: √ проверено
Размер: 11.13 GB
Как cкачать? Как скачать Григорий Р. через торрент | qTorrent

% Раздел Тема Автор DL S | L
Наши сериалы [ 4.14 GB ] Григорий Р. / Сезон: 1 / Серии 1-8 из 8 [2014 Россия история SATRip) GEKADOL Скачать
1 | 0

28-11-2019 20:33  

Отключить всю рекламу на сайте

01-11-2014 12:06 Григорий Р. Скачать торрент  

во. а я две последних пропустил. режисура на высоте. благодарю автора )pb.wtf



03-11-2014 13:59 Григорий Р. Скачать торрент  

раздающему поклон! pb.wtf



31-01-2015 16:50 Григорий Р. Скачать торрент  

Так себе кино, на тройку. Смотрится без особого интереса. Действий мало. еле досмотрел за два месяцаpb.wtf



13-12-2016 20:00 Григорий Р. Скачать торрент  

Сериал сильный! Может и без современной динамики.
Заметил новую тенденцию снимать сериалы на историческую тему.
Похвально!
Хотя и имеются разные точки зрения на истор. факты.
Но это наша история, и нам решать где правда а где вымысел.
За рип спасибо!pb.wtf



    Дорогой пользователь! Огромная просьба, поблагодарите релизера, оцените раздачу и оставьте свои комментарий, если Вы скачали Григорий Р. через торрент бесплатно! Внесите свою лепту в развитие PiratBit!
    Комментировать посты могут только пользователи прошедшие не сложную регистрацию
    Показать сообщения:    

    Григорий Р. через торрент
    Скачать бесплатно Григорий Р.
    Григорий Р. скачать торрент
    Григорий Р. смотреть онлайн
    Cкачать фильм Григорий Р. бесплатно
    Григорий Р. скачать торрент в хорошем качестве
    Григорий Р. смотреть онлайн бесплатно в хорошем качестве


    Вы не можете начинать темы
    Вы не можете отвечать на сообщения
    Вы не можете редактировать свои сообщения
    Вы не можете удалять свои сообщения
    Вы не можете голосовать в опросах
    Вы не можете прикреплять файлы к сообщениям
    Вы можете скачивать файлы