Ссылка на приватное зеркало нашего сайта всего за 1$. Внимание количество ограничено!!!

2 сезон

iTunes

1 сезон

1

2 сезон

2 сезон

iTunes

1 сезон

RePack

30

Ultimate

ВАЖНО

ИГРА 18+

pack

RePack

MK11
pack

Забери бонус

RePack

jed

!!Акция!!

Alien_Rage

RePack

fifa19

RePack

Assassins Creed: Odyssey

RePack

NEED FOR SPEED™ PAYBACK

4 сезон

9 сезон

Бесстыжие 9 сезон

Все сериалы

все сериалы на PB.wtf

RePack

FAR CRY 5
  

Любовь/Ненависть / Love/Hate / Сезон: 3 / Серии 1-2 из 6 (Дэвид Кэффри) [2012 г.,Драма, криминал ,HDTVRip ] MVO (Paradox) pb.wtf

Любовь через торрент pb.wtf

Размер: 1.08 GB | Добавлен: 5 лет 11 мес. назад | Торрент скачан:16 раз
Скачать  

31-10-2014 15:04 Любовь Скачать торрент  

Любовь/Ненависть / Love/Hate
Год выпуска: 2012
Страна: Ирландия
Жанр: Драма, криминал
Продолжительность: ~ 00:51:00
Перевод: Любительский многоголосый закадровый "Paradox" (Внимание!!! Ненормативная лексика!)

Режиссер: Дэвид Кэффри



В ролях: Роберт Шиэн, Том Вон-Лолор, Киллиан Скотт, Чарли Мерфи, Марк Данн, Питер Кунан, Сьюзэн Лунейн, Рут Брэдли, Эйден Гиллен

Описание: Когда один из героев телефильма «Любовь/Ненависть», Даррен Трейси (Роберт Шиэн), возвращается в Дублин, проведя год в бегах в Испании, убивают его брата, который только что вышел из под ареста и ради которого Даррен вернулся. Это убийство влечет за собой цепь событий, которые влекут за собой все новое число жертв.

Текст читали: Ирина Грачева, Андрей Астров, Максим Максимов, Глеб Орлов и Дмитрий Кравченко

Качество: HDTVRip
Формат: MPEG-4 Visual
Видео кодек: XviD
Аудио кодек: AC3
Видео: 720x400 (1.80:1), 25 fps, build 50 ~1295 kbps avg, 0.18 bit/pixel
Аудио#1: 48 kHz, AC3 Dolby Digital, 2/0 (L,R) ch, ~192 kbp
Внимание! Раздача ведётся путём добавления новых серий; при каждом добавлении создаётся новый торрент. Чтобы начать докачку новой серии, пользователям необходимо сделать следующее:
(1) остановить скачивание,
(2) удалить старый торрент у себя из клиента (старые серии удалять не надо),
(3) скачать новый торрент и запустить его у себя в клиенте вместо старого, при этом указать клиенту путь в старую папку куда и должно происходить скачивание новых серий.
Ваш клиент при этом должен произвести хеширование (проверку) старой папки (если не производит сам - помогите ему сделать это), и будет докачивать только те серии которых у вас ещё нет. Старые серии при этом не удаляются, а продолжают раздаваться!
Eсли вы уже удалили старые серии, то предотвратить повторную закачку старых серий можно, отжав галочку в соответсвующих местах при запуске нового торрента. По возможности, желательно не удалять старые серии как можно дольше чтобы релизёр не столько продолжал раздавать старые серии, а смог сконцентрироваться на новых.





General
Complete name : F:\Love.Hate.2012.S03E01.HDTVRip.Paradox.avi
Format : AVI
Format/Info : Audio Video Interleave
File size : 551 MiB
Duration : 51mn 24s
Overall bit rate : 1 498 Kbps
Writing application : VirtualDubMod 1.5.10.2 (build 2540/release)
Writing library : VirtualDubMod build 2540/release

Video
ID : 0
Format : MPEG-4 Visual
Format profile : Advanced Simple@L5
Format settings, BVOP : 1
Format settings, QPel : No
Format settings, GMC : No warppoints
Format settings, Matrix : Default (H.263)
Codec ID : XVID
Codec ID/Hint : XviD
Duration : 51mn 24s
Bit rate : 1 296 Kbps
Width : 720 pixels
Height : 400 pixels
Display aspect ratio : 16:9
Frame rate : 25.000 fps
Color space : YUV
Chroma subsampling : 4:2:0
Bit depth : 8 bits
Scan type : Progressive
Compression mode : Lossy
Bits/(Pixel*Frame) : 0.180
Stream size : 476 MiB (87%)
Writing library : XviD 1.2.1 (UTC 2008-12-04)

Audio
ID : 1
Format : AC-3
Format/Info : Audio Coding 3
Mode extension : CM (complete main)
Format settings, Endianness : Big
Codec ID : 2000
Duration : 51mn 24s
Bit rate mode : Constant
Bit rate : 192 Kbps
Channel(s) : 2 channels
Channel positions : Front: L R
Sampling rate : 48.0 KHz
Bit depth : 16 bits
Compression mode : Lossy
Stream size : 70.6 MiB (13%)
Alignment : Split accross interleaves
Interleave, duration : 40 ms (1.00 video frame)
Interleave, preload duration : 500 ms

pb.wtf



Скачать Любовь через торрент http://pic.kartinco.top/images/7/hwzes.jpg Скачать фильм Любовьчерез торрент бесплантно в хорошем качестве Описание: Когда один из героев телефильма «Любовь/Ненависть», Даррен Трейси (Роберт Шиэн), возвращается в Дублин, проведя год в бегах в ... 8.8 10 4
Торрент: Зарегистрирован [2014-12-04 13:44] · скачан: 16 раз
Статус: √ проверено
Размер: 1.08 GB
Как cкачать? Как скачать Любовь через торрент | qTorrent

28-11-2019 20:33  

Отключить всю рекламу на сайте

    Дорогой пользователь! Огромная просьба, поблагодарите релизера, оцените раздачу и оставьте свои комментарий, если Вы скачали Любовь через торрент бесплатно! Внесите свою лепту в развитие PiratBit!
    Комментировать посты могут только пользователи прошедшие не сложную регистрацию
    Показать сообщения:    

    Любовь через торрент
    Скачать бесплатно Любовь
    Любовь скачать торрент
    Любовь смотреть онлайн
    Cкачать фильм Любовь бесплатно
    Любовь скачать торрент в хорошем качестве
    Любовь смотреть онлайн бесплатно в хорошем качестве


    Вы не можете начинать темы
    Вы не можете отвечать на сообщения
    Вы не можете редактировать свои сообщения
    Вы не можете удалять свои сообщения
    Вы не можете голосовать в опросах
    Вы не можете прикреплять файлы к сообщениям
    Вы можете скачивать файлы