Ссылка на приватное зеркало нашего сайта всего за 1$. Внимание количество ограничено!!!

2 сезон

iTunes

1 сезон

1

2 сезон

2 сезон

iTunes

1 сезон

RePack

30

Ultimate

ВАЖНО

ИГРА 18+

pack

RePack

MK11
pack

Забери бонус

RePack

jed

!!Акция!!

Alien_Rage

RePack

fifa19

RePack

Assassins Creed: Odyssey

RePack

NEED FOR SPEED™ PAYBACK

4 сезон

9 сезон

Бесстыжие 9 сезон

Все сериалы

все сериалы на PB.wtf

RePack

FAR CRY 5
  

Опасная иллюзия / Влюбиться до смерти / The Necessary Death of Charlie Countryman (Фредрик Бонд / Fredrik Bond) [2013, триллер, криминал, боевик, драма, мелодрама, комедия, BDRip-AVC] Dub pb.wtf

Опасная иллюзия через торрент pb.wtf

Раздают: 1 [ 0 KB/s ]
Размер: 1.46 GB | Добавлен: 6 лет назад | Торрент скачан:392 раза
Скачать  

31-10-2014 21:35 Опасная иллюзия Скачать торрент  

Опасная иллюзия / Влюбиться до смерти
The Necessary Death of Charlie Countryman

«На грани жизни и смерти. Ради неё»




Страна: США, Румыния
Жанр: триллер, криминал, боевик, драма, мелодрама, комедия
Год выпуска: 2013
Продолжительность: 01:43:36

Перевод: Профессиональный (полное дублирование) [Лицензия]
Cубтитры: нет
Оригинальная аудиодорожка: нет

Режиссер:
Фредрик Бонд / Fredrik Bond

В ролях:
Шайа ЛаБаф, Эван Рэйчел Вуд, Мадс Миккелсен, Тиль Швайгер, Руперт Гринт, Джеймс Бакли, Ион Карамитру, Винсент Д’Онофрио, Мелисса Лео, Джон Хёрт

Описание:
Чарли Кантримен живет в США, спасаясь с помощью галлюциногенных веществ от скучной работы и тоски ничем не примечательного существования. Во время очередного наркотического трипа Чарли видит свою покойную мать, которая настоятельно рекомендует сыну съездить в Бухарест. Он не смеет ослушаться маму — и там герой фильма знакомится с девушкой своей мечты, а заодно — с местными криминальными порядками, из-за чего рискует в скором времени расстаться с жизнью.


Релиз:

Автор рипа: Stalker oK

Сэмпл: multi-up

Качество видео: BDRip-AVC [Blu-ray Remux 1080p]
Формат видео: MKV
Видео кодек: AVC
Аудио кодек: AC3
Видео: 1572 Кбит/сек, 960*540 (16:9), в 23,976 кадр/сек, AVC
Аудио: Russian, 448 Кбит/сек, 48,0 КГц, 16 бит, 6 канала(ов), AC-3
Общее
Уникальный идентификатор : 192934865556254751858882591749987748812 (0x9125E74B0FFAD89EA54FE528363DCBCC)
Полное имя : L:\TEMP\Влюбиться до смерти (Опасная иллюзия)\Opasnaja.illjuzija.2013.BDRip-AVC.Dub.1.45Gb...stalkerok.new-team.mkv
Формат : Matroska
Размер файла : 1,46 Гбайт
Продолжительность : 1 ч. 43 м.
Общий поток : 2022 Кбит/сек
Название фильма : The Necessary Death of Charlie Countryman, 2013 (New-Team) (Rip by Stalker oK)
Дата кодирования : UTC 2014-10-31 20:45:09
Программа кодирования : mkvmerge v6.1.0 ('Old Devil') built on Mar 4 2013 09:10:42
Библиотека кодирования : libebml v1.3.0 + libmatroska v1.4.0

Видео
Идентификатор : 1
Формат : AVC
Формат/Информация : Advanced Video Codec
Профиль формата : High@L4.1
Параметр CABAC формата : Да
Параметр ReFrames формата : 11 кадры
Идентификатор кодека : V_MPEG4/ISO/AVC
Продолжительность : 1 ч. 43 м.
Битрейт : 1572 Кбит/сек
Ширина : 960 пикс.
Высота : 540 пикс.
Соотношение сторон : 16:9
Частота кадров : 23,976 кадр/сек
Цветовое пространство : YUV
Подвыборка цветности : 4:2:0
Битовая глубина : 8 бит
Тип развёртки : Прогрессивная
Бит/(Пиксели*Кадры) : 0.126
Размер потока : 1,11 Гбайт (76%)
Библиотека кодирования : x264 core 142 r2431 ac76440
Настройки программы : cabac=1 / ref=11 / deblock=1:-3:-3 / analyse=0x3:0x133 / me=umh / subme=11 / psy=1 / psy_rd=1.00:0.12 / mixed_ref=1 / me_range=48 / chroma_me=1 / trellis=2 / 8x8dct=1 / cqm=0 / deadzone=21,11 / fast_pskip=0 / chroma_qp_offset=-3 / threads=12 / lookahead_threads=3 / sliced_threads=0 / nr=0 / decimate=0 / interlaced=0 / bluray_compat=0 / constrained_intra=0 / bframes=13 / b_pyramid=2 / b_adapt=2 / b_bias=0 / direct=3 / weightb=1 / open_gop=0 / weightp=2 / keyint=240 / keyint_min=23 / scenecut=40 / intra_refresh=0 / rc_lookahead=80 / rc=2pass / mbtree=0 / bitrate=1572 / ratetol=1.0 / qcomp=0.70 / qpmin=0 / qpmax=69 / qpstep=4 / cplxblur=20.0 / qblur=0.5 / vbv_maxrate=20000 / vbv_bufsize=25000 / nal_hrd=none / filler=0 / ip_ratio=1.20 / pb_ratio=1.10 / aq=2:0.90
Язык : English

Аудио
Идентификатор : 2
Формат : AC-3
Формат/Информация : Audio Coding 3
Расширение режима : CM (complete main)
Идентификатор кодека : A_AC3
Продолжительность : 1 ч. 43 м.
Вид битрейта : Постоянный
Битрейт : 448 Кбит/сек
Канал(ы) : 6 канала(ов)
Расположение каналов : Front: L C R, Side: L R, LFE
Частота : 48,0 КГц
Битовая глубина : 16 бит
Метод сжатия : С потерями
Размер потока : 332 Мбайт (22%)
Язык : Russian
pb.wtf



Скачать Опасная иллюзия через торрент http://i4.imageban.ru/out/2013/11/20/23afd37ba301cf29b16658cd2201c4ed.png Скачать фильм Опасная иллюзия через торрент бесплантно в хорошем качестве Описание:Чарли Кантримен живет в США, спасаясь с помощью галлюциногенных веществ от скучной работы и тоски ничем не примечательного ... 8.5 10 12
Торрент: Зарегистрирован [2014-10-31 21:35] · скачан: 392 раз
Статус: √ проверено
Размер: 1.46 GB
Как cкачать? Как скачать Опасная иллюзия через торрент | qTorrent

% Раздел Тема Автор DL S | L
Фильмы 2013 [DVDrip, WEB-DLRip, HDrip] [ 748 MB ] Опасная иллюзия / Влюбиться до смерти / The Necessary Death of Charlie Countryman [2013 BDRip-AVC] Dub sokol_ok Скачать
2 | 0
Фильмы [HD 720p, 1080p] (Хороший звук DUB, MVO) [ 6.37 GB ] Опасная иллюзия / Влюбиться до смерти / The Necessary Death of Charlie Countryman [ 2013 BDRip 1080p ] DVO Ворон Скачать
1 | 0

28-11-2019 20:33  

Отключить всю рекламу на сайте

    Дорогой пользователь! Огромная просьба, поблагодарите релизера, оцените раздачу и оставьте свои комментарий, если Вы скачали Опасная иллюзия через торрент бесплатно! Внесите свою лепту в развитие PiratBit!
    Комментировать посты могут только пользователи прошедшие не сложную регистрацию
    Показать сообщения:    

    Опасная иллюзия через торрент
    Скачать бесплатно Опасная иллюзия
    Опасная иллюзия скачать торрент
    Опасная иллюзия смотреть онлайн
    Cкачать фильм Опасная иллюзия бесплатно
    Опасная иллюзия скачать торрент в хорошем качестве
    Опасная иллюзия смотреть онлайн бесплатно в хорошем качестве


    Вы не можете начинать темы
    Вы не можете отвечать на сообщения
    Вы не можете редактировать свои сообщения
    Вы не можете удалять свои сообщения
    Вы не можете голосовать в опросах
    Вы не можете прикреплять файлы к сообщениям
    Вы можете скачивать файлы