Ссылка на приватное зеркало нашего сайта всего за 1$. Внимание количество ограничено!!!

2 сезон

iTunes

1 сезон

1

iTunes

iTunes

iTunes

1 сезон

RePack

30

ИГРА 18+

pack

ВАЖНО

!!Акция!!

Alien_RageХит недели

RePack

MK11
pack

Забери бонус

RePack

jed

!!Акция!!

Alien_Rage

RePack

fifa19

RePack

Assassins Creed: Odyssey

RePack

NEED FOR SPEED™ PAYBACK

4 сезон

9 сезон

Бесстыжие 9 сезон

Все сериалы

все сериалы на PB.wtf

RePack

FAR CRY 5
  

Укради мою жену / Life of Crime (Дэниэл Шехтер) [2013 г., криминал, драма, комедия, BDRip (720p), Дубляж] [iTunes] pb.wtf

Укради мою жену через торрент pb.wtf

Размер: 4.63 GB | Добавлен: 5 лет 11 мес. назад | Торрент скачан:311 раз
Скачать  

01-11-2014 06:08 Укради мою жену Скачать торрент  

Укради мою жену / Life of Crime
Год выпуска: 2013
Страна: США
Жанр: криминал, драма, комедия
Продолжительность: 01:40:49
Перевод: Дубляж [iTunes]

Режиссер: Дэниэл Шехтер
Продюссер: Ашок Амритрадж, Элизабет Дестро, Эллен Голдсмит-Вейн
Сценарий: Дэниэл Шехтер, Элмор Леонард
Бюджет: $12 000 000
Премьера в мире: 14 сентября 2013

IMDB 5.80 (4164)


В ролях: Дженнифер Энистон, Мос Деф, Айла Фишер, Уилл Форте, Марк Бун Джуниор, Тим Роббинс, Джон Хоукс, Клеа Льюис, Чарли Тахэн, Кевин Корригэн, Сергей Чихачев, Элиза Мартиросова

Описание: Когда двое непутевых преступников похитили жену коррумпированного застройщика, они совсем не ожидали, что супруг не захочет вызволять благоверную. Вместо того чтобы заплатить преступникам выкуп, он скрывается на Багамах с любовницей. В результате сюжет принимает неожиданный поворот...

Дополнительно: Сохранены оригинальные чаптеры

Качество: BDRip (720p)
Формат: MKV
Видео кодек: AVC
Аудио кодек: AC3 / DTS
Видео: MPEG-4 AVC, 4693 Кбит/с, 1280x536, 23.976 fps
Аудио#1: Russian: AC3, 6 ch, 384 Кбит/с, 48.0 KHz
Аудио#2: English: DTS, 6 ch, 1510 Кбит/с, 48.0 KHz
Сэмпл
General
Unique ID : 180595756554987807038251142966794242815 (0x87DD7A3FEBB046F7BD00C9DB09D3CAFF)
Complete name : /home/sb1855/files/Ukrad1.mou.Genu.2014.D.BDRip.720p.mkv
Format : Matroska
Format version : Version 2
File size : 4.63 GiB
Duration : 1h 40mn
Overall bit rate : 6 582 Kbps
Encoded date : UTC 2014-10-31 18:46:34
Writing application : mkvmerge v7.3.0 ('Nouages') 64bit built on Oct 22 2014 18:53:34
Writing library : libebml v1.3.0 + libmatroska v1.4.1
DURATION : 01:39:28.128000000
NUMBER_OF_FRAMES : 186504
NUMBER_OF_BYTES : 286470144
_STATISTICS_WRITING_APP : mkvmerge v7.3.0 ('Nouages') 64bit built on Oct 22 2014 18:53:34
_STATISTICS_WRITING_DATE_UTC : 2014-10-31 18:46:34
_STATISTICS_TAGS : BPS DURATION NUMBER_OF_FRAMES NUMBER_OF_BYTES

Video
ID : 1
Format : AVC
Format/Info : Advanced Video Codec
Format profile : High@L4.1
Format settings, CABAC : Yes
Format settings, ReFrames : 5 frames
Codec ID : V_MPEG4/ISO/AVC
Duration : 1h 40mn
Bit rate : 4 693 Kbps
Width : 1 280 pixels
Height : 536 pixels
Display aspect ratio : 2.40:1
Frame rate : 23.976 fps
Color space : YUV
Chroma subsampling : 4:2:0
Bit depth : 8 bits
Scan type : Progressive
Bits/(Pixel*Frame) : 0.285
Stream size : 3.21 GiB (69%)
Writing library : x264 core 142 r2479 dd79a61
Encoding settings : cabac=1 / ref=5 / deblock=1:0:0 / analyse=0x3:0x133 / me=umh / subme=7 / psy=1 / psy_rd=1.00:0.00 / mixed_ref=1 / me_range=16 / chroma_me=1 / trellis=1 / 8x8dct=1 / cqm=0 / deadzone=21,11 / fast_pskip=0 / chroma_qp_offset=-2 / threads=18 / lookahead_threads=3 / sliced_threads=0 / nr=0 / decimate=1 / interlaced=0 / bluray_compat=0 / constrained_intra=0 / bframes=3 / b_pyramid=2 / b_adapt=1 / b_bias=0 / direct=1 / weightb=1 / open_gop=0 / weightp=2 / keyint=250 / keyint_min=23 / scenecut=40 / intra_refresh=0 / rc_lookahead=40 / rc=2pass / mbtree=1 / bitrate=4693 / ratetol=1.0 / qcomp=0.60 / qpmin=0 / qpmax=69 / qpstep=4 / cplxblur=20.0 / qblur=0.5 / ip_ratio=1.40 / aq=1:1.00
Language : English
Default : Yes
Forced : No
DURATION : 01:40:48.427000000
NUMBER_OF_FRAMES : 145017
NUMBER_OF_BYTES : 3547192610
_STATISTICS_WRITING_APP : mkvmerge v7.3.0 ('Nouages') 64bit built on Oct 22 2014 18:53:34
_STATISTICS_WRITING_DATE_UTC : 2014-10-31 18:46:34
_STATISTICS_TAGS : BPS DURATION NUMBER_OF_FRAMES NUMBER_OF_BYTES

Audio #1
ID : 2
Format : AC-3
Format/Info : Audio Coding 3
Mode extension : CM (complete main)
Format settings, Endianness : Big
Codec ID : A_AC3
Duration : 1h 40mn
Bit rate mode : Constant
Bit rate : 384 Kbps
Channel(s) : 6 channels
Channel positions : Front: L C R, Side: L R, LFE
Sampling rate : 48.0 KHz
Bit depth : 16 bits
Compression mode : Lossy
Stream size : 277 MiB (6%)
Language : Russian
Default : Yes
Forced : No

Audio #2
ID : 3
Format : DTS
Format/Info : Digital Theater Systems
Codec ID : A_DTS
Duration : 1h 40mn
Bit rate mode : Constant
Bit rate : 1 510 Kbps
Channel(s) : 6 channels
Channel positions : Front: L C R, Side: L R, LFE
Sampling rate : 48.0 KHz
Bit depth : 24 bits
Compression mode : Lossy
Stream size : 1.06 GiB (23%)
Language : English
Default : No
Forced : No

Menu
00:00:00.000 : en:00:00:00.000
00:06:22.465 : en:00:06:22.465
00:12:52.438 : en:00:12:52.438
00:19:13.110 : en:00:19:13.110
00:26:24.750 : en:00:26:24.750
00:32:54.347 : en:00:32:54.347
00:38:40.818 : en:00:38:40.818
00:44:30.418 : en:00:44:30.418
00:52:46.455 : en:00:52:46.455
00:59:22.476 : en:00:59:22.476
01:03:57.500 : en:01:03:57.500
01:12:24.674 : en:01:12:24.674
01:17:48.122 : en:01:17:48.122
01:25:22.659 : en:01:25:22.659
01:30:31.009 : en:01:30:31.009
01:34:57.567 : en:01:34:57.567

скриншот   скриншот   скриншот  pb.wtf



Скачать Укради мою жену через торрент http://pic.kartinco.top/images/7/6sce1.jpg Скачать фильм Укради мою жену через торрент бесплантно в хорошем качестве Описание: Когда двое непутевых преступников похитили жену коррумпированного застройщика, они совсем не ожидали, что супруг не захочет ... 10 10 10
Торрент: Зарегистрирован [2014-11-01 06:08] · скачан: 311 раз
Статус: √ проверено
Размер: 4.63 GB
Как cкачать? Как скачать Укради мою жену через торрент | qTorrent

% Раздел Тема Автор DL S | L
Фильмы 2013 [DVDrip, WEB-DLRip, HDrip] [ 1.45 GB ] Укради мою жену / Life of Crime [2013 HDRip ] кэп Скачать
1 | 0

28-11-2019 20:33  

Отключить всю рекламу на сайте

    Дорогой пользователь! Огромная просьба, поблагодарите релизера, оцените раздачу и оставьте свои комментарий, если Вы скачали Укради мою жену через торрент бесплатно! Внесите свою лепту в развитие PiratBit!
    Комментировать посты могут только пользователи прошедшие не сложную регистрацию
    Показать сообщения:    

    Укради мою жену через торрент
    Скачать бесплатно Укради мою жену
    Укради мою жену скачать торрент
    Укради мою жену смотреть онлайн
    Cкачать фильм Укради мою жену бесплатно
    Укради мою жену скачать торрент в хорошем качестве
    Укради мою жену смотреть онлайн бесплатно в хорошем качестве


    Вы не можете начинать темы
    Вы не можете отвечать на сообщения
    Вы не можете редактировать свои сообщения
    Вы не можете удалять свои сообщения
    Вы не можете голосовать в опросах
    Вы не можете прикреплять файлы к сообщениям
    Вы можете скачивать файлы