2 сезон

iTunes

MVO

1

2 сезон

iTunes

iTunes

1 сезон

RePack

30

Новинка

ВАЖНО

ИГРА 18+

pack

RePack

MK11
pack

Легкие деньги

RePack

jed

RePack

fifa19

RePack

RDR2

RePack

NEED FOR SPEED™ PAYBACK

4 сезон

9 сезон

Бесстыжие 9 сезон

Все сериалы

все сериалы на PB.wtf

RePack

FAR CRY 5

Anonymous, добрый вечер, мы не успеваем собрать деньги на оплату серверов за декабрь и январь, помогите нам пожалуйста в это трудное время. В качестве благодарности мы отключим Вам всю рекламу на сайте (укажите свой ник в строку Ваше имя)!

×
  
Magnet ссылка

Поздравление / Happy Halloween PiratBit.net [2014 г., Music clips, erotic, WEB-DLRip 720p, Оригинал] pb.wtf

Поздравление через торрент pb.wtf

Размер: 219 MB | Добавлен: 6 лет 2 мес. назад | Торрент скачан:101 раз
Скачать  

01-11-2014 11:26 Поздравление Скачать торрент  

Поздравление / Happy Halloween PiratBit.net
Год выпуска: 2014
Жанр: Music clips, erotic
Продолжительность: 00:09:33
Перевод: Оригинал
Описание:

В Хэллоуин принято наряжаться в карнавальные костюмы и маски, это замечательно для такого веселого и яркого торжества. Но мне хочется пожелать Вам сталкиваться с масками лишь в праздник, а в повседневной жизни пусть Вас окружают только открытые и честные люди! А еще в Хэллоуин принято не бояться нечисти, поэтому желаю Вам всегда смело идти вперед по жизни и отбросить все страхи! Посмотрите, как вокруг красиво, осенний праздник радует своим разнообразием и воодушевляет своим сказочным духом! Желаю больше улыбок и вдохновения каждый день! С Хэллоуином! Жизнь или кошелек!
Качество: WEB-DLRip 720p
Формат: MKV
Видео кодек: MPEG4
Аудио кодек: AC3
Видео: AVC, 1280x720 (16:9), 23.976 fps, 2 859 Kbps (0.129 bit/pixel)
Аудио#1: AC-3, 48.0 KHz, 2 ch, 224 Kbps, CBR (English )
Релиз от: terras
скриншот   скриншот   скриншот   скриншот   скриншот   скриншот  

Общее
Уникальный идентификатор : 201399069706242182350290392776196668697 (0x97840CC706B353EE7A634BDF6102BD19)
Полное имя : D:\Архив\Клипы\Happy Halloween PiratBit.net.mkv
Формат : Matroska
Версия формата : Version 2
Размер файла : 219 Мбайт
Продолжительность : 9 м. 33 с.
Общий поток : 3209 Кбит/сек
Программа кодирования : Lavf52.93.0
Библиотека кодирования : Lavf52.93.0

Видео
Идентификатор : 1
Формат : AVC
Формат/Информация : Advanced Video Codec
Профиль формата : Baseline@L3.1
Параметр CABAC формата : Нет
Параметр ReFrames формата : 1 кадр
Идентификатор кодека : V_MPEG4/ISO/AVC
Продолжительность : 9 м. 33 с.
Битрейт : 2859 Кбит/сек
Ширина : 1280 пикселей
Высота : 720 пикселей
Соотношение сторон : 16:9
Режим частоты кадров : Постоянный
Частота кадров : 23,976 кадра/сек
Цветовое пространство : YUV
Субдискретизация насыщенности : 4:2:0
Битовая глубина : 8 бит
Тип развёртки : Прогрессивная
Бит/(Пиксели*Кадры) : 0.129
Размер потока : 200 Мбайт (91%)
Библиотека кодирования : x264 core 112
Настройки программы :
Default : Да
Forced : Нет
DURATION : 00:02:47.793000000
NUMBER_OF_FRAMES : 4023
NUMBER_OF_BYTES : 43226768
_STATISTICS_WRITING_APP : mkvmerge v7.2.0 ('On Every Street') 64bit built on Sep 13 2014 15:52:10
_STATISTICS_WRITING_DATE_UTC : 2014-11-01 10:03:07
_STATISTICS_TAGS : BPS DURATION NUMBER_OF_FRAMES NUMBER_OF_BYTES

Аудио
Идентификатор : 2
Формат : AC-3
Формат/Информация : Audio Coding 3
Расширение режима : CM (complete main)
Параметр Endianness формата : Big
Идентификатор кодека : A_AC3
Продолжительность : 9 м. 33 с.
Вид битрейта : Постоянный
Битрейт : 224 Кбит/сек
Каналы : 2 канала
Расположение каналов : Front: L R
Частота : 48,0 КГц
Битовая глубина : 16 бит
Метод сжатия : С потерями
Размер потока : 15,3 Мбайт (7%)
Default : Да
Forced : Нет
DURATION : 00:02:47.872000000
NUMBER_OF_FRAMES : 7869
NUMBER_OF_BYTES : 1542325
_STATISTICS_WRITING_APP : mkvmerge v7.2.0 ('On Every Street') 64bit built on Sep 13 2014 15:52:10
_STATISTICS_WRITING_DATE_UTC : 2014-11-01 10:03:07
_STATISTICS_TAGS : BPS DURATION NUMBER_OF_FRAMES NUMBER_OF_BYTES

pb.wtf



Скачать Поздравление через торрент http://pic.kartinco.top/images/7/covhv.jpg Скачать фильм Поздравление через торрент бесплантно в хорошем качестве Описание: В Хэллоуин принято наряжаться в карнавальные костюмы и маски, это замечательно для такого веселого и яркого торжества. Но мне ... 10 10 8
Торрент: Зарегистрирован [2014-11-01 11:26] · скачан: 101 раз
Статус: √ проверено
Размер: 219 MB
Как cкачать? Как скачать Поздравление через торрент | UTorrent

28-11-2019 20:33  

Отключить всю рекламу на сайте

    Дорогой пользователь! Огромная просьба, поблагодарите релизера, оцените раздачу и оставьте свои комментарий, если Вы скачали Поздравление через торрент бесплатно! Внесите свою лепту в развитие PiratBit!
    Комментировать посты могут только пользователи прошедшие не сложную регистрацию
    Показать сообщения:    

    Поздравление через торрент
    Скачать бесплатно Поздравление
    Поздравление скачать торрент
    Поздравление смотреть онлайн
    Cкачать фильм Поздравление бесплатно
    Поздравление скачать торрент в хорошем качестве
    Поздравление смотреть онлайн бесплатно в хорошем качестве


    Вы не можете начинать темы
    Вы не можете отвечать на сообщения
    Вы не можете редактировать свои сообщения
    Вы не можете удалять свои сообщения
    Вы не можете голосовать в опросах
    Вы не можете прикреплять файлы к сообщениям
    Вы можете скачивать файлы