Ссылка на приватное зеркало нашего сайта всего за 1$. Внимание количество ограничено!!!

2 сезон

iTunes

1 сезон

1

iTunes

iTunes

iTunes

1 сезон

RePack

30

ИГРА 18+

pack

ВАЖНО

!!Акция!!

Alien_RageХит недели

RePack

MK11
pack

Забери бонус

RePack

jed

!!Акция!!

Alien_Rage

RePack

fifa19

RePack

Assassins Creed: Odyssey

RePack

NEED FOR SPEED™ PAYBACK

4 сезон

9 сезон

Бесстыжие 9 сезон

Все сериалы

все сериалы на PB.wtf

RePack

FAR CRY 5
  

Самый опасный человек / A Most Wanted Man (Антон Корбейн / Anton Corbijn) [2014 , Великобритания, США, Германия, триллер, BDRip 1080p] Дубляж [Лицензия, R5] + Original + Sub от R.G. PiratFilms pb.wtf

Самый опасный человек через торрент pb.wtf

Размер: 11.51 GB | Добавлен: 5 лет 10 мес. назад | Торрент скачан:114 раз
Скачать  

01-11-2014 19:02 Самый опасный человек Скачать торрент  

Самый опасный человек / A Most Wanted Man
«Каждая война начинается со страха. Каждое предательство начинается с доверия»
Год выпуска: 2014
Страна: Великобритания, США, Германия
Жанр: триллер
Продолжительность: 02:02:23
Перевод:
|Профессиональный (полное дублирование), Лицензия, R5|
Субтитры: Английские

Режиссер: Антон Корбейн / Anton Corbijn
В ролях: Филип Сеймур Хоффман (Günther Bachmann), Григорий Добрыгин (Issa Karpov), Рэйчел МакАдамс (Annabel Richter), Уиллем Дефо (Tommy Brue), Нина Хосс (Irna Frey), Робин Райт (Martha Sullivan), Райнер Бок (Dieter Mohr), Хомаюн Эршади (Abdullah), Мехди Дехби (Jamal), Даниэль Брюль (Maximilian), Вики Крипс (Niki), Костя Улльман (Rasheed)
Описание:
Каждая война начинается со страха. Каждое предательство начинается с доверия. Глава секретного подразделения разведки получает задание найти опасного международного беглеца Ису Карпова, которого из симпатии укрывает молодая девушка-адвокат. Когда в погоню вступают разведки других стран, начинается большая шпионская игра, в которой любой может оказаться наживкой или акулой. А национальная безопасность нередко зависит от простых человеческих чувств.

Рейтинг

MPAA: R - Лицам до 17 лет обязательно присутствие взрослого

Качество: BDRip 1080p|Исходник: A.Most.Wanted.Man.2014.REMUX.1080p.BluRay.AVC.DTS-HD.MA.5.1-iFT
Формат: MKV
Видео кодек: AVC
Аудио кодек: AC3, DTS
Видео: AVC, 1920x816 (2.35:1), 11505 kbps, 23,976 fps, 0,307 bpp
Аудио №1: русский / AC3 / 5.1 / 48 kHz / 448 kbps / 16 bit |Лицензия, R5|
Аудио №2: английский / DTS / 5.1 / 48 kHz / 1510 kbps / 24 bit |English|
Оформление: Messa-fan
Рип: by Messa-fan

Код:

x264 [info]: frame I:1096  Avg QP:14.78  size:221731
x264 [info]: frame P:37068 Avg QP:17.30  size: 96478
x264 [info]: frame B:137906 Avg QP:18.57  size: 48886
x264 [info]: consecutive B-frames:  1.9%  4.7%  7.2%  7.8%  8.9% 62.9%  3.4%  0.4%  0.8%  2.1%

Код:

Общее
Уникальный идентификатор                 : 225427212442378265100263909780481522593 (0xA997B3ADE65FF488B35C85502F0A3BA1)
Полное имя                               : A.Most.Wanted.Man.2014.BDRip.1080p.DUB.Eng.Sub.by.Messafan.mkv
Формат                                   : Matroska
Версия формата                           : Version 4 / Version 2
Размер файла                             : 11,5 Гбайт
Продолжительность                        : 2 ч. 2 м.
Общий поток                              : 13,5 Мбит/сек
Название фильма                          : A Most Wanted Man (2014) 1080p rip by Messafan
Дата кодирования                         : UTC 2014-11-30 10:21:14
Программа кодирования                    : mkvmerge v6.7.0 ('Back to the Ground') 64bit built on Jan  8 2014 15:10:52
Библиотека кодирования                   : libebml v1.3.0 + libmatroska v1.4.1

Видео
Идентификатор                            : 1
Формат                                   : AVC
Формат/Информация                        : Advanced Video Codec
Профиль формата                          : High@L4.1
Параметр CABAC формата                   : Да
Параметр ReFrames формата                : 5 кадров
Идентификатор кодека                     : V_MPEG4/ISO/AVC
Продолжительность                        : 2 ч. 2 м.
Битрейт                                  : 11,5 Мбит/сек
Ширина                                   : 1920 пикселей
Высота                                   : 816 пикселей
Соотношение сторон                       : 2,35:1
Режим частоты кадров                     : Постоянный
Частота кадров                           : 23,976 кадра/сек
Цветовое пространство                    : YUV
Субдискретизация насыщенности            : 4:2:0
Битовая глубина                          : 8 бит
Тип развёртки                            : Прогрессивная
Бит/(Пиксели*Кадры)                      : 0.307
Размер потока                            : 9,61 Гбайт (83%)
Заголовок                                : A Most Wanted Man (2014) 1080p rip by Messafan
Библиотека кодирования                   : x264 core 142 r2479kMod dd79a61
Настройки программы                      : cabac=1 / ref=5 / deblock=1:-3:-3 / analyse=0x3:0x113 / me=umh / subme=10 / psy=1 / fade_compensate=0.00 / psy_rd=1.01:0.00 / mixed_ref=1 / me_range=32 / chroma_me=1 / trellis=2 / 8x8dct=1 / cqm=0 / deadzone=21,11 / fast_pskip=0 / chroma_qp_offset=-4 / threads=6 / lookahead_threads=1 / sliced_threads=0 / nr=0 / decimate=1 / interlaced=0 / bluray_compat=0 / constrained_intra=0 / fgo=0 / bframes=9 / b_pyramid=2 / b_adapt=2 / b_bias=0 / direct=3 / weightb=1 / open_gop=0 / weightp=1 / keyint=240 / keyint_min=23 / scenecut=40 / intra_refresh=0 / rc_lookahead=60 / rc=2pass / mbtree=1 / bitrate=11523 / ratetol=1.0 / qcomp=0.80 / qpmin=0 / qpmax=69 / qpstep=4 / cplxblur=20.0 / qblur=0.5 / vbv_maxrate=50000 / vbv_bufsize=62500 / nal_hrd=none / filler=0 / ip_ratio=1.35 / aq=1:0.80
Язык                                     : English
Default                                  : Да
Forced                                   : Нет

Аудио #1
Идентификатор                            : 2
Формат                                   : AC-3
Формат/Информация                        : Audio Coding 3
Расширение режима                        : CM (complete main)
Параметр Endianness формата              : Big
Идентификатор кодека                     : A_AC3
Продолжительность                        : 2 ч. 2 м.
Вид битрейта                             : Постоянный
Битрейт                                  : 448 Кбит/сек
Каналы                                   : 6 каналов
Расположение каналов                     : Front: L C R, Side: L R, LFE
Частота                                  : 48,0 КГц
Битовая глубина                          : 16 бит
Метод сжатия                             : С потерями
Задержка видео                           : 35 с.
Размер потока                            : 392 Мбайт (3%)
Заголовок                                : DUB (R5)
Язык                                     : Russian
Default                                  : Да
Forced                                   : Нет

Аудио #2
Идентификатор                            : 3
Формат                                   : DTS
Формат/Информация                        : Digital Theater Systems
Режим                                    : 16
Параметр Endianness формата              : Big
Идентификатор кодека                     : A_DTS
Продолжительность                        : 2 ч. 2 м.
Вид битрейта                             : Постоянный
Битрейт                                  : 1509 Кбит/сек
Каналы                                   : 6 каналов
Расположение каналов                     : Front: L C R, Side: L R, LFE
Частота                                  : 48,0 КГц
Битовая глубина                          : 24 бит
Метод сжатия                             : С потерями
Размер потока                            : 1,29 Гбайт (11%)
Заголовок                                : English
Язык                                     : English
Default                                  : Нет
Forced                                   : Нет

Текст
Идентификатор                            : 4
Формат                                   : UTF-8
Идентификатор кодека                     : S_TEXT/UTF8
Идентификатор кодека/Информация          : UTF-8 Plain Text
Язык                                     : English
Default                                  : Нет
Forced                                   : Нет

Меню
00:00:00.000                             : en:00:00:00.000
00:08:26.256                             : en:00:08:26.256
00:15:38.771                             : en:00:15:38.771
00:24:58.872                             : en:00:24:58.872
00:30:40.047                             : en:00:30:40.047
00:37:54.147                             : en:00:37:54.147
00:47:22.381                             : en:00:47:22.381
00:52:45.079                             : en:00:52:45.079
01:02:10.602                             : en:01:02:10.602
01:09:44.430                             : en:01:09:44.430
01:16:51.816                             : en:01:16:51.816
01:25:22.826                             : en:01:25:22.826
01:32:06.229                             : en:01:32:06.229
01:40:02.914                             : en:01:40:02.914
01:49:38.322                             : en:01:49:38.322
01:55:53.029                             : en:01:55:53.029

Source <<<<<-------vs------->>>>> Encode











  • Экранизация одноименного романа Джона ле Карре, опубликованного в 2008-м году.
  • Режиссер Антон Корбейн снялся в эпизодической роли. Когда по телевизору показывают пресс-конференцию, его можно увидеть сидящим рядом с Хомаюном Эршади (Абдулла).
  • Один из продюсеров этого фильма, Стивен Корнуэлл, является сыном Джона ле Карре. Этот фильм стал их первой совместной работой.
  • События фильма разворачиваются в Гамбурге. Джон ле Карре, автор романа, по которому снят фильм, работал на британскую разведку MI5 и MI6 в 1950-х и 1960-х годах. Он работал в Берлине и Гамбурге. Ле Карре был в Берлине во время постройки Берлинской стены. А в Гамбурге он работал одновременно консулом и агентом.
  • Роман Джона ле Карре, по которому снят фильм, основан на реальной жизни Мурата Курназа, гражданина Турции, легально проживающего в Германии, который был арестован в Пакистане по подозрению в причастности к теракту в США, произошедшему 11 сентября 2001 года. После чего его отправили на американскую военную базу в Кандагаре (Афганистан), а затем в тюрьму в Гуантанамо (Куба), где он пробыл 5 лет.
  • Эми Адамс, Кэри Маллиган и Джессика Честейн рассматривались на роль Аннабель Рихтер.
  • 22 июля 2008 года была выпущена 9-минутная короткометражка, в которой Джон ле Карре рассказывает о своем романе «Самый опасный человек». Эту короткометражку снял Саймон Ченнинг-Вильямс, который занимался продюсированием экранизации другого романа Джона ле Карре - «Преданный садовник» (2005).
  • Специально для роли Аннабель Рихтер Рэйчел МакАдамс научилась разговаривать с немецким акцентом.
  • pb.wtf



    Скачать Самый опасный человек через торрент http://i63.fastpic.ru/big/2014/1028/a8/93b421ec8b2e68c2b49fe38e9f1f16a8.png Скачать фильм Самый опасный человек через торрент бесплантно в хорошем качестве Описание: Каждая война начинается со страха. Каждое предательство начинается с доверия. Глава секретного подразделения разведки получает ... 10 10 3
    Info! Золотая раздача, скачанное не засчитывается.
    Торрент: Зарегистрирован [2014-11-30 10:29] · скачан: 114 раз
    Статус: √ проверено
    Размер: 11.51 GB
    Как cкачать? Как скачать Самый опасный человек через торрент | qTorrent

    % Раздел Тема Автор DL S | L
    Фильмы [HD 720p, 1080p] (Хороший звук DUB, MVO) [ 6.68 GB ] Самый опасный человек / A Most Wanted Man [2014 Германия BDRip 720p] [ R5] + Original + Sub от R.G. PiratFilms Messa-fan Скачать
    1 | 0


    Последний раз редактировалось: Messa-fan (2014-11-30 10:35), всего редактировалось 3 раз(а)

    28-11-2019 20:33  

    Отключить всю рекламу на сайте

      Дорогой пользователь! Огромная просьба, поблагодарите релизера, оцените раздачу и оставьте свои комментарий, если Вы скачали Самый опасный человек через торрент бесплатно! Внесите свою лепту в развитие PiratBit!
      Комментировать посты могут только пользователи прошедшие не сложную регистрацию
      Показать сообщения:    

      Самый опасный человек через торрент
      Скачать бесплатно Самый опасный человек
      Самый опасный человек скачать торрент
      Самый опасный человек смотреть онлайн
      Cкачать фильм Самый опасный человек бесплатно
      Самый опасный человек скачать торрент в хорошем качестве
      Самый опасный человек смотреть онлайн бесплатно в хорошем качестве


      Вы не можете начинать темы
      Вы не можете отвечать на сообщения
      Вы не можете редактировать свои сообщения
      Вы не можете удалять свои сообщения
      Вы не можете голосовать в опросах
      Вы не можете прикреплять файлы к сообщениям
      Вы можете скачивать файлы