1 сезон

3 сезон

iTunes

1

Line

MVO

iTunes

13

1 сезон

RePack

30

Deluxe

pack

Лицензия

ВАЖНО

ИГРА 18+

pack

RePack

MK11

RePack

jed

RePack

fifa19

RePack

RDR2

RePack

NEED FOR SPEED™ PAYBACK

4 сезон

9 сезон

Бесстыжие 9 сезон

Все сериалы

все сериалы на PB.wtf

RePack

FAR CRY 5

Anonymous, доброе утро, мы катастрофически не успеваем собрать деньги на оплату серверов, помогите нам пожалуйста 5,10,15р., для нас важна любая помощь . В качестве благодарности мы отключим Вам всю рекламу на сайте (укажите свой ник в строку Ваше имя)!

×
  
Magnet ссылка

Побудь в моей шкуре / Under the Skin (Джонатан Глейзер / Jonathan Glazer) [2013, фантастика, триллер, драма, DVD5] R5 pb.wtf

Побудь в моей шкуре через торрент pb.wtf

Размер: 4.05 GB | Добавлен: 6 лет 8 мес. назад | Торрент скачан:49 раз
Скачать  

02-11-2014 09:41 Побудь в моей шкуре Скачать торрент  


Побудь в моей шкуре / Under the Skin
Страна: Великобритания, США, Швейцария
Студия: British Film Institute (BFI), Creative Scotland, Film4, FilmNation Entertainment, JW Films, Nick Wechsler Productions, Scottish Screen, Silver Reel, UK Film Council
Жанр: фантастика, триллер, драма
Год выпуска: 2013
Мировая премьера: 29 августа 2013
Российская премьера: 31 июля 2014
Дата выхода DVD: 5 ноября 2014
Продолжительность: 01:43:50
Перевод: Профессиональный (многоголосый закадровый) [Лицензия]
Cубтитры: нет
Оригинальная аудиодорожка: нет
Режиссер: Джонатан Глейзер / Jonathan Glazer
В ролях: Скарлетт Йоханссон, Джереми МакУильямс, Линси Тейлор Маккэй, Даги МакКоннелл, Кевин МакАлинден, Д. Мид, Эндрю Горман, Джо Шула, Криштоф Гадек, Рой Армстронг
Описание: Таинственная соблазнительница охотится на жителей Шотландии…
Бонусы: нет

Качество: DVD5 R5
Формат: DVD-Video
Видео кодек: MPEG2
Аудио кодек: AC3
Видео: PAL 16:9 (720x576(0.488)) MPEG Video, 25,000 кадр/сек, 5055 Кбит/сек
Аудио: Russian (Dolby AC3, 6 ch) 448 Кбит/сек, 48,0 КГц



Title: Pobud.v.moej.shkure.2013.DVD5
Size: 4.05 Gb ( 4 246 204,00 KBytes ) - DVD-5
Enabled regions: 1, 2, 3, 4, 5, 6, 7, 8

VTS_01 :
Play Length: 01:43:50
Video: PAL 16:9 (720x576) VBR, Auto Letterboxed
Audio:
Russian (Dolby AC3, 6 ch)

VTS_02 :
Play Length: 00:00:08
Video: PAL 4:3 (720x576) VBR

VTS_03 :
Play Length: 00:00:04+00:00:04
Video: PAL 16:9 (720x576) VBR, Auto Letterboxed

VTS_04 :
Play Length: 00:00:20
Video: PAL 4:3 (720x576) VBR
Audio:
English (Dolby AC3, 2 ch)

VTS_05 :
Play Length: 00:00:12
Video: PAL 16:9 (720x576) VBR, Auto Letterboxed
Subtitles:
English

* Menus Information *

VIDEO_TS Menu
Video:
NTSC 4:3 (720x480) VBR
Auto Pan&Scan, Auto Letterboxed
Russian Language Unit :
Title Menu

VTS_01 Menu
Video:
PAL 16:9 (720x576) VBR
Auto Letterboxed
Russian Language Unit :
Root Menu
Chapter (PTT) Menu

VTS_02 Menu
Video:
NTSC 4:3 (720x480) VBR
Auto Pan&Scan, Auto Letterboxed
Language Unit :
Subpicture Menu
Angle menu
Language Unit :

Language Unit :
Audio Menu
Chapter (PTT) Menu
Language Unit :

Language Unit :
Audio Menu
Chapter (PTT) Menu

VTS_03 Menu
Video:
NTSC 4:3 (720x480) VBR
Auto Pan&Scan, Auto Letterboxed
Language Unit :
Subpicture Menu
Angle menu
Language Unit :

Language Unit :
Angle menu
Language Unit :
Angle menu
Language Unit :
Angle menu

VTS_04 Menu
Video:
NTSC 4:3 (720x480) VBR
Auto Pan&Scan, Auto Letterboxed
Language Unit :
Subpicture Menu
Angle menu
Language Unit :

Language Unit :
Root Menu
Subpicture Menu
Angle menu
Language Unit :

Language Unit :
Root Menu
Subpicture Menu
Angle menu

VTS_05 Menu
Video:
NTSC 4:3 (720x480) VBR
Auto Pan&Scan, Auto Letterboxed
Language Unit :
Subpicture Menu
Angle menu
Language Unit :

Language Unit :
Root Menu
Subpicture Menu
Audio Menu
Language Unit :

Language Unit :
Root Menu
Subpicture Menu
Audio Menu
Общее
Полное имя : F:\Новинки 2014\Pobud.v.moej.shkure.2013.DVD5\VIDEO_TS\VTS_01_1.VOB
Формат : MPEG-PS
Размер файла : 1024 Мбайт
Продолжительность : 25 м.
Режим общего битрейта : Переменный
Общий поток : 5614 Кбит/сек

Видео
Идентификатор : 224 (0xE0)
Формат : MPEG Video
Версия формата : Version 2
Профиль формата : Main@Main
Параметр BVOP формата : Да
Параметр матрицы формата : Выборочная
Параметр GOP формата : Variable
Format_Settings_PictureStructure : Frame
Продолжительность : 25 м.
Вид битрейта : Переменный
Битрейт : 5055 Кбит/сек
Максимальный битрейт : 8000 Кбит/сек
Ширина : 720 пикселей
Высота : 576 пикселей
Соотношение сторон : 16:9
Частота кадров : 25,000 кадров/сек
Стандарт вещания : PAL
Цветовое пространство : YUV
Субдискретизация насыщенности : 4:2:0
Битовая глубина : 8 бит
Тип развёртки : Чересстрочная
Порядок развёртки : Верхнее поле первое
Метод сжатия : С потерями
Бит/(Пиксели*Кадры) : 0.488
Временной код первого кадра : 00:00:00:00
Оригинал временного кода : Group of pictures header
Размер потока : 922 Мбайт (90%)

Аудио
Идентификатор : 189 (0xBD)-128 (0x80)
Формат : AC-3
Формат/Информация : Audio Coding 3
Расширение режима : CM (complete main)
Параметр Endianness формата : Big
Режим смешивания : DVD-Video
Продолжительность : 25 м.
Вид битрейта : Постоянный
Битрейт : 448 Кбит/сек
Каналы : 6 каналов
Расположение каналов : Front: L C R, Side: L R, LFE
Частота : 48,0 КГц
Битовая глубина : 16 бит
Метод сжатия : С потерями
Размер потока : 81,7 Мбайт (8%)










pb.wtf



Скачать Побудь в моей шкуре через торрент http://i68.fastpic.ru/big/2014/1102/93/3c4d5ac515cea9a2c1a48be75a16d193.png Скачать фильм Побудь в моей шкуре через торрент бесплантно в хорошем качестве Описание: Таинственная соблазнительница охотится на жителей Шотландии…Бонусы: нет ... 7.5 10 4
Торрент: Зарегистрирован [2014-11-02 09:41] · скачан: 49 раз
Статус: √ проверено
Размер: 4.05 GB
Как cкачать? Как скачать Побудь в моей шкуре через торрент | UTorrent

% Раздел Тема Автор DL S | L
R.G. Resident & PiratVoice - Фильмы, Видео [ 2.02 GB ] Побудь в моей шкуре / Under the Skin [2013 HDRip ] от R.G. Resident Dean24 Скачать
1 | 0

28-11-2019 20:33  

Отключить всю рекламу на сайте


    Дорогой пользователь! Огромная просьба, поблагодарите релизера, оцените раздачу и оставьте свои комментарий, если Вы скачали Побудь в моей шкуре через торрент бесплатно! Внесите свою лепту в развитие PiratBit!
    Комментировать посты могут только пользователи прошедшие не сложную регистрацию
    Показать сообщения:    

    Побудь в моей шкуре через торрент
    Скачать бесплатно Побудь в моей шкуре
    Побудь в моей шкуре скачать торрент
    Побудь в моей шкуре смотреть онлайн
    Cкачать фильм Побудь в моей шкуре бесплатно
    Побудь в моей шкуре скачать торрент в хорошем качестве
    Побудь в моей шкуре смотреть онлайн бесплатно в хорошем качестве


    Вы не можете начинать темы
    Вы не можете отвечать на сообщения
    Вы не можете редактировать свои сообщения
    Вы не можете удалять свои сообщения
    Вы не можете голосовать в опросах
    Вы не можете прикреплять файлы к сообщениям
    Вы можете скачивать файлы