1 сезон

1 сезон

iTunes

1

КиноПоиск HD

Кинопоиск HD

iTunes

13

1 сезон

RePack

30

Новинка

ВАЖНО

ИГРА 18+

pack

RePack

MK11
pack

Легкие деньги

RePack

jed

RePack

fifa19

RePack

RDR2

RePack

NEED FOR SPEED™ PAYBACK

4 сезон

9 сезон

Бесстыжие 9 сезон

Все сериалы

все сериалы на PB.wtf

RePack

FAR CRY 5
  
Magnet ссылка

Затвор / Shutter (Баньенг Писензенекун / Banjong Pisanthanakun, Паркпум Вонгпум / Parkpoom Wongpoom) [2004, Таиланд, ужасы, триллер, детектив, HDRip,Авторский (одноголосый) С. Кузнецов pb.wtf

Затвор через торрент pb.wtf

Размер: 1.37 GB | Добавлен: 6 лет 5 мес. назад | Торрент скачан:72 раза
Скачать  

02-11-2014 13:13 Затвор Скачать торрент  

Затвор / Shutter

Год выпуска: 2004
Страна: Таиланд
Жанр: ужасы, триллер, детектив

Продолжительность: 01:32:19
Перевод: Авторский (одноголосый)С. Кузнецов
Субтитры: Нет
Режиссер: Баньенг Писензенекун / Banjong Pisanthanakun, Паркпум Вонгпум / Parkpoom Wongpoom
В ролях: Ананда Эверингем (Tun), Наттавирануч Тонгми (Jane), Ачита Сикамана (Natre), Унноп Чанпайбул (Tonn), Титикарн Тонгпрасеартх (Jim), Сивагорн Муттамара (Meng), Чаччая Чалемпхол (Tonn's Wife), Качормсак Нарыпатр (Tee), Апичарт Чусакуль (Magazine Editor), Бинн Китчачонпонг (Asst. Magazine Editor), Panitan Mavichak (Nuch), Samruay Jaratjaroonpong (Man 1)
Описание:
Тан, молодой фотограф, сбивает девушку и скрывается с места аварии вместе со своей подругой Джен. После несчастного случая, на снимках, которые он делает, появляется странная тень.
Сначала Тан решает, что это просто брак, но тень появляется снова и снова, а друзья Тана начинают умирать.
Рейтинг
kinopoisk.ru: 6.734 (764)
imdb.com: 7,1/10 from 26 978 users
MPAA: R - Лицам до 17 лет обязательно присутствие взрослого
Качество: HDRip
Формат: AVI
Видео кодек: XviD
Аудио кодек:AC3
Видео: XviD, 704x384 (16:9), 1913 kbps, 29,970 fps, 0,236 bpp
Аудио: AC3 / 2.0 / 48 kHz / 192 kbps / 16 bit

General
Complete name : D:\torrent\Zatvor.avi
Format : AVI
Format/Info : Audio Video Interleave
File size : 1.37 GiB
Duration : 1h 32mn
Overall bit rate : 2 117 Kbps
Writing application : FairUse Wizard - http://fairusewizard.com
Writing library : The best and REALLY easy backup tool

Video
ID : 0
Format : MPEG-4 Visual
Format profile : Advanced Simple@L5
Format settings, BVOP : 1
Format settings, QPel : No
Format settings, GMC : No warppoints
Format settings, Matrix : Default (MPEG)
Muxing mode : Packed bitstream
Codec ID : XVID
Codec ID/Hint : XviD
Duration : 1h 32mn
Bit rate : 1 913 Kbps
Width : 704 pixels
Height : 384 pixels
Display aspect ratio : 16:9
Frame rate : 29.970 fps
Color space : YUV
Chroma subsampling : 4:2:0
Bit depth : 8 bits
Scan type : Progressive
Compression mode : Lossy
Bits/(Pixel*Frame) : 0.236
Stream size : 1.23 GiB (90%)
Writing library : XviD 1.2.0.dev47 (UTC 2006-11-01)

Audio
ID : 1
Format : AC-3
Format/Info : Audio Coding 3
Mode extension : CM (complete main)
Codec ID : 2000
Duration : 1h 32mn
Bit rate mode : Constant
Bit rate : 192 Kbps
Channel(s) : 2 channels
Channel positions : Front: L R
Sampling rate : 48.0 KHz
Bit depth : 16 bits
Compression mode : Lossy
Stream size : 127 MiB (9%)
Alignment : Split accross interleaves
Interleave, duration : 33 ms (1.00 video frame)
Interleave, preload duration : 500 ms



pb.wtf



Скачать Затвор через торрент http://i5.imageban.ru/out/2014/11/02/4a187c9d7425f0a97cc12954288eb76b.jpg Скачать фильм Затвор через торрент бесплантно в хорошем качестве Описание: Тан, молодой фотограф, сбивает девушку и скрывается с места аварии вместе со своей подругой Джен. После несчастного случая, на ... 8.3 10 3
Торрент: Зарегистрирован [2014-11-02 13:13] · скачан: 72 раз
Статус: √ проверено
Размер: 1.37 GB
Как cкачать? Как скачать Затвор через торрент | UTorrent

28-11-2019 20:33  

Отключить всю рекламу на сайте

12-11-2014 18:15 Затвор Скачать торрент  

А дублированный многоголосный перевод есть?pb.wtf



    Дорогой пользователь! Огромная просьба, поблагодарите релизера, оцените раздачу и оставьте свои комментарий, если Вы скачали Затвор через торрент бесплатно! Внесите свою лепту в развитие PiratBit!
    Комментировать посты могут только пользователи прошедшие не сложную регистрацию
    Показать сообщения:    

    Затвор через торрент
    Скачать бесплатно Затвор
    Затвор скачать торрент
    Затвор смотреть онлайн
    Cкачать фильм Затвор бесплатно
    Затвор скачать торрент в хорошем качестве
    Затвор смотреть онлайн бесплатно в хорошем качестве


    Вы не можете начинать темы
    Вы не можете отвечать на сообщения
    Вы не можете редактировать свои сообщения
    Вы не можете удалять свои сообщения
    Вы не можете голосовать в опросах
    Вы не можете прикреплять файлы к сообщениям
    Вы можете скачивать файлы