Ссылка на приватное зеркало нашего сайта всего за 1$. Внимание количество ограничено!!!

2 сезон

iTunes

1 сезон

1

iTunes

iTunes

iTunes

1 сезон

RePack

30

ИГРА 18+

pack

ВАЖНО

!!Акция!!

Alien_RageХит недели

RePack

MK11
pack

Забери бонус

RePack

jed

!!Акция!!

Alien_Rage

RePack

fifa19

RePack

Assassins Creed: Odyssey

RePack

NEED FOR SPEED™ PAYBACK

4 сезон

9 сезон

Бесстыжие 9 сезон

Все сериалы

все сериалы на PB.wtf

RePack

FAR CRY 5
  

Медведь / L'ours (Жан-Жак Анно ) [1988, драма, приключения, семейный, BDRip 1080p, Профессиональный (одноголосый) pb.wtf

Медведь через торрент pb.wtf

Размер: 7.76 GB | Добавлен: 5 лет 11 мес. назад | Торрент скачан:178 раз
Скачать  

02-11-2014 16:41 Медведь Скачать торрент  

Медведь / L'ours
«He's an orphan... at the start of a journey. A journey to survive»


Год выпуска: 1988
Страна: Франция, США
Жанр: драма, приключения, семейный
Продолжительность: 01:36:24
Перевод: Профессиональный (одноголосый)

Субтитры: русские (Russian), английские (English)
Режиссер: Жан-Жак Анно
В ролях: медведь Барт , медведь Юк , Чеки Карио , Джек Уоллес , Андре Лакомб
Описание::
Среди прекрасных и величественных пейзажей Британской Колумбии случилась трогательная история о медвежонке, потерявшем свою мать и предоставленным самому себе, в то время как двое охотников продолжают рыскать по лесу в поисках добычи.
Судьба сводит вместе осиротевшего малыша и огромного раненого медведя. Непросто складываются их взаимоотношения, но охотники с ружьями и злыми собаками оказываются куда страшнее. Столкновение людей и животных неизбежно.
А зритель фильма оказывается в «медвежьей шкуре» и наблюдает за людьми с позиции главного героя.

Качество: BDRip 1080p (исходник Blu-ray)
Контейнер (Расширение): MKV
Видео кодек: AVC
Аудио кодек: AC3
Видео: 1916x820 (2.35:1), 10435 Кбит/сек, 23,976 кадр/сек, 0,277 Бит/[Пиксели*Кадры]
Аудио №1: русский / AC3 / 5.1 / 48 kHz / 448 kbps / 16 bit |Профессиональный (одноголосый), R5|
Аудио №2: французский / AC3 / 5.1 / 48 kHz / 640 kbps / 16 bit
Навигация по главам(Чаптеры): есть
Автор рипа: Сообщество:

Код:

Format                                   : Matroska
Format version                           : Version 2
File size                                : 7.76 GiB
Duration                                 : 1h 36mn
Overall bit rate                         : 11.5 Mbps
Movie name                               : Medved'.(1998).BDRip.1080p.[denis100]
Encoded date                             : UTC 2014-03-19 08:00:30
Writing application                      : mkvmerge v5.8.0 ('No Sleep / Pillow') built on Sep  2 2012 15:37:04
Writing library                          : libebml v1.2.3 + libmatroska v1.3.0

Video
ID                                       : 1
Format                                   : AVC
Format/Info                              : Advanced Video Codec
Format profile                           : High@L4.1
Format settings, CABAC                   : Yes
Format settings, ReFrames                : 5 frames
Codec ID                                 : V_MPEG4/ISO/AVC
Duration                                 : 1h 36mn
Bit rate                                 : 10.4 Mbps
Width                                    : 1 916 pixels
Height                                   : 820 pixels
Display aspect ratio                     : 2.35:1
Frame rate                               : 23.976 fps
Color space                              : YUV
Chroma subsampling                       : 4:2:0
Bit depth                                : 8 bits
Scan type                                : Progressive
Bits/(Pixel*Frame)                       : 0.277
Stream size                              : 6.87 GiB (89%)
Title                                    : Medved'.(1998).BDRip.1080p.[denis100]
Writing library                          : x264 core 138 r2358 9e941d1
Encoding settings                        : cabac=1 / ref=5 / deblock=1:-3:-3 / analyse=0x3:0x133 / me=umh / subme=11 / psy=1 / psy_rd=1.00:0.10 / mixed_ref=1 / me_range=32 / chroma_me=1 / trellis=2 / 8x8dct=1 / cqm=0 / deadzone=21,11 / fast_pskip=0 / chroma_qp_offset=-3 / threads=6 / lookahead_threads=1 / sliced_threads=0 / nr=0 / decimate=1 / interlaced=0 / bluray_compat=0 / constrained_intra=0 / bframes=7 / b_pyramid=2 / b_adapt=2 / b_bias=0 / direct=3 / weightb=1 / open_gop=0 / weightp=2 / keyint=240 / keyint_min=23 / scenecut=40 / intra_refresh=0 / rc=2pass / mbtree=0 / bitrate=10435 / ratetol=1.0 / qcomp=0.60 / qpmin=0 / qpmax=69 / qpstep=4 / cplxblur=20.0 / qblur=0.5 / ip_ratio=1.40 / pb_ratio=1.30 / aq=1:0.80
Language                                 : English
Default                                  : Yes
Forced                                   : No

Audio #1
ID                                       : 2
Format                                   : AC-3
Format/Info                              : Audio Coding 3
Mode extension                           : CM (complete main)
Codec ID                                 : A_AC3
Duration                                 : 1h 36mn
Bit rate mode                            : Constant
Bit rate                                 : 448 Kbps
Channel(s)                               : 6 channels
Channel positions                        : Front: L C R, Side: L R, LFE
Sampling rate                            : 48.0 KHz
Bit depth                                : 16 bits
Compression mode                         : Lossy
Stream size                              : 309 MiB (4%)
Title                                    : Профессиональный (одноголосый закадровый, R5)
Language                                 : Russian
Default                                  : Yes
Forced                                   : No

Audio #2
ID                                       : 3
Format                                   : AC-3
Format/Info                              : Audio Coding 3
Mode extension                           : CM (complete main)
Codec ID                                 : A_AC3
Duration                                 : 1h 36mn
Bit rate mode                            : Constant
Bit rate                                 : 640 Kbps
Channel(s)                               : 6 channels
Channel positions                        : Front: L C R, Side: L R, LFE
Sampling rate                            : 48.0 KHz
Bit depth                                : 16 bits
Compression mode                         : Lossy
Stream size                              : 441 MiB (6%)
Title                                    : French
Language                                 : French
Default                                  : No
Forced                                   : No

Text #1
ID                                       : 4
Format                                   : UTF-8
Codec ID                                 : S_TEXT/UTF8
Codec ID/Info                            : UTF-8 Plain Text
Title                                    : Russian
Language                                 : Russian
Default                                  : No
Forced                                   : No

Text #2
ID                                       : 5
Format                                   : UTF-8
Codec ID                                 : S_TEXT/UTF8
Codec ID/Info                            : UTF-8 Plain Text
Title                                    : English
Language                                 : English
Default                                  : No
Forced                                   : No

Menu
00:00:00.000                             : fr:Youk seul au monde
00:08:10.323                             : fr:Vers l'aventure
00:13:20.925                             : fr:Les chasseurs sur la piste de Kaar
00:26:00.392                             : fr:L'orphelin er l'eclope
00:34:10.757                             : fr:A deux sous la lune
00:39:02.548                             : fr:Comme pere et fils
00:44:47.976                             : fr:Kaar, la belle, Youk et les champignons
00:52:38.321                             : fr:Traque par la meute
01:02:15.982                             : fr:La compagnie des hommes
01:13:27.403                             : fr:La face a face
01:22:14.054                             : fr:Youk de nouveau seul
01:25:43.805                             : fr:Poursuivi par le puma
01:29:53.137                             : fr:Une taniere dans l'immensite
01:32:53.651                             : fr:Generique de fin

x264 [info]: frame I:918 Avg QP:16.44 size:210072
x264 [info]: frame P:34239 Avg QP:18.73 size: 88820
x264 [info]: frame B:103527 Avg QP:20.82 size: 41593
pb.wtf



Скачать Медведь через торрент http://i66.fastpic.ru/big/2014/1102/c2/253f7f347ba33d368e4a704a27eab0c2.png Скачать фильм Медведь через торрент бесплантно в хорошем качестве Описание::Среди прекрасных и величественных пейзажей Британской Колумбии случилась трогательная история о медвежонке, потерявшем свою мать ... 9.8 10 4
Info! Золотая раздача, скачанное не засчитывается.
Торрент: Зарегистрирован [2014-11-02 16:41] · скачан: 178 раз
Статус: √ проверено
Размер: 7.76 GB
Как cкачать? Как скачать Медведь через торрент | qTorrent

28-11-2019 20:33  

Отключить всю рекламу на сайте

02-11-2014 16:42 Медведь Скачать торрент  

Сильный фильм!pb.wtf



    Дорогой пользователь! Огромная просьба, поблагодарите релизера, оцените раздачу и оставьте свои комментарий, если Вы скачали Медведь через торрент бесплатно! Внесите свою лепту в развитие PiratBit!
    Комментировать посты могут только пользователи прошедшие не сложную регистрацию
    Показать сообщения:    

    Медведь через торрент
    Скачать бесплатно Медведь
    Медведь скачать торрент
    Медведь смотреть онлайн
    Cкачать фильм Медведь бесплатно
    Медведь скачать торрент в хорошем качестве
    Медведь смотреть онлайн бесплатно в хорошем качестве


    Вы не можете начинать темы
    Вы не можете отвечать на сообщения
    Вы не можете редактировать свои сообщения
    Вы не можете удалять свои сообщения
    Вы не можете голосовать в опросах
    Вы не можете прикреплять файлы к сообщениям
    Вы можете скачивать файлы