2 сезон

iTunes

MVO

1

2 сезон

iTunes

iTunes

1 сезон

RePack

30

Ultimate

ВАЖНО

ИГРА 18+

pack

RePack

MK11
pack

Легкие деньги

RePack

jed

RePack

fifa19

RePack

RDR2

RePack

NEED FOR SPEED™ PAYBACK

4 сезон

9 сезон

Бесстыжие 9 сезон

Все сериалы

все сериалы на PB.wtf

RePack

FAR CRY 5

Anonymous, доброй ночи, мы не успеваем собрать деньги на оплату серверов за декабрь и январь, помогите нам пожалуйста в это трудное время. В качестве благодарности мы отключим Вам всю рекламу на сайте (укажите свой ник в строку Ваше имя)!

×
  
Magnet ссылка

Плохие слова / Bad Words (Джейсон Бейтман) [2013 г., комедия, BDRip, Дубляж, Лицензия] pb.wtf

Плохие слова через торрент pb.wtf

Размер: 1.46 GB | Добавлен: 6 лет 2 мес. назад | Торрент скачан:222 раза
Скачать  

02-11-2014 17:51 Плохие слова Скачать торрент  

Плохие слова / Bad Words
Год выпуска: 2013
Страна: США / Aggregate Films, Darko Entertainment
Жанр: комедия
Продолжительность: 01:28:55
Перевод: Дубляж (Лицензия)

Режиссер: Джейсон Бейтман

В ролях: Джейсон Бейтман,Кэтрин Хан,Роэн Чанд,Филип Бейкер Холл,Эллисон Дженни,Бен Фэлкоун,Стив Уиттинг,Бет Грант,Гвен Парден,Анжул Нигам

Описание: Фильм рассказывает о мужчине, который хочет попасть на соревнование по правописанию и попадает на него, найдя в регламенте конкурса лазейку…

Качество: BDRip (Рип с Blu-ray CEE 1080p AVC DTS 5.1-EbP)
Формат: AVI
Видео кодек: XviD
Аудио кодек: AC3
Видео: MPEG4, XviD, 720x304 (2.35:1), 23.976 fps, 1 900 Kbps (0.362 bit/pixel)
Аудио: AC-3, 48.0 KHz, 6 ch, 448 Kbps, CBR


Общее
Полное имя : G:\кино\Плохие слова.2013.BDRip.avi
Формат : AVI
Формат/Информация : Audio Video Interleave
Размер файла : 1,46 Гбайт
Продолжительность : 1 ч. 28 м.
Общий поток : 2357 Кбит/сек
Программа кодирования : VirtualDubMod 1.5.10.3 | www.virtualdub-fr.org || (build 2550/release)
Библиотека кодирования : VirtualDubMod build 2550/release

Видео
Идентификатор : 0
Формат : MPEG-4 Visual
Профиль формата : Advanced Simple@L5
Параметр BVOP формата : 1
Параметр QPel формата : Нет
Параметр GMC формата : Без точки перехода
Параметр матрицы формата : Default (MPEG)
Идентификатор кодека : XVID
Идентификатор кодека/Подсказка : XviD
Продолжительность : 1 ч. 28 м.
Битрейт : 1900 Кбит/сек
Ширина : 720 пикселей
Высота : 304 пикселя
Соотношение сторон : 2,35:1
Частота кадров : 23,976 кадра/сек
Цветовое пространство : YUV
Субдискретизация насыщенности : 4:2:0
Битовая глубина : 8 бит
Тип развёртки : Прогрессивная
Метод сжатия : С потерями
Бит/(Пиксели*Кадры) : 0.362
Размер потока : 1,18 Гбайт (81%)
Библиотека кодирования : XviD 1.2.1 (UTC 2008-12-04)

Аудио
Идентификатор : 1
Формат : AC-3
Формат/Информация : Audio Coding 3
Расширение режима : CM (complete main)
Параметр Endianness формата : Big
Идентификатор кодека : 2000
Продолжительность : 1 ч. 28 м.
Вид битрейта : Постоянный
Битрейт : 448 Кбит/сек
Каналы : 6 каналов
Расположение каналов : Front: L C R, Side: L R, LFE
Частота : 48,0 КГц
Битовая глубина : 16 бит
Метод сжатия : С потерями
Размер потока : 285 Мбайт (19%)
Выравнивание : Разделение по промежуткам
Продолжительность промежутка : 42 мс. (1,00 видеокадр)
Время предзагрузки промежутка : 500 мс.

pb.wtf



Скачать Плохие слова через торрент http://i63.fastpic.ru/big/2014/1102/86/ade9df7a61bc62040edba1268ee50a86.jpg Скачать фильм Плохие слова через торрент бесплантно в хорошем качестве Описание: Фильм рассказывает о мужчине, который хочет попасть на соревнование по правописанию и попадает на него, найдя в регламенте ... 7.7 10 6
Торрент: Зарегистрирован [2014-11-02 17:51] · скачан: 222 раз
Статус: √ проверено
Размер: 1.46 GB
Как cкачать? Как скачать Плохие слова через торрент | UTorrent

% Раздел Тема Автор DL S | L
Фильмы [HD 720p, 1080p] (Хороший звук DUB, MVO) [ 7.76 GB ] Плохие слова / Bad Words [2013 BDRip 1080p] DUB еnvy Скачать
1 | 0
Фильмы 2013 [DVDrip, WEB-DLRip, HDrip] [ 1.37 GB ] Плохие слова / Bad Words [2013 HDRip] DUB Ворон Скачать
1 | 0

28-11-2019 20:33  

Отключить всю рекламу на сайте

03-11-2014 13:16 Плохие слова Скачать торрент  

На фото Карпов что ли?))pb.wtf



    Дорогой пользователь! Огромная просьба, поблагодарите релизера, оцените раздачу и оставьте свои комментарий, если Вы скачали Плохие слова через торрент бесплатно! Внесите свою лепту в развитие PiratBit!
    Комментировать посты могут только пользователи прошедшие не сложную регистрацию
    Показать сообщения:    

    Плохие слова через торрент
    Скачать бесплатно Плохие слова
    Плохие слова скачать торрент
    Плохие слова смотреть онлайн
    Cкачать фильм Плохие слова бесплатно
    Плохие слова скачать торрент в хорошем качестве
    Плохие слова смотреть онлайн бесплатно в хорошем качестве


    Вы не можете начинать темы
    Вы не можете отвечать на сообщения
    Вы не можете редактировать свои сообщения
    Вы не можете удалять свои сообщения
    Вы не можете голосовать в опросах
    Вы не можете прикреплять файлы к сообщениям
    Вы можете скачивать файлы