2 сезон

iTunes

MVO

1

2 сезон

iTunes

iTunes

1 сезон

RePack

30

Ultimate

ВАЖНО

ИГРА 18+

pack

RePack

MK11
pack

Легкие деньги

RePack

jed

RePack

fifa19

RePack

RDR2

RePack

NEED FOR SPEED™ PAYBACK

4 сезон

9 сезон

Бесстыжие 9 сезон

Все сериалы

все сериалы на PB.wtf

RePack

FAR CRY 5

Anonymous, добрый вечер, мы не успеваем собрать деньги на оплату серверов за декабрь и январь, помогите нам пожалуйста в это трудное время. В качестве благодарности мы отключим Вам всю рекламу на сайте (укажите свой ник в строку Ваше имя)!

×
  
Magnet ссылка

Покаяние / Repentance (Филипп Кэлэнд ) [2013, ужасы, триллер, WEB-DLRip, Профессиональный многоголосый [Лицензия] pb.wtf

Покаяние через торрент pb.wtf

Размер: 1.37 GB | Добавлен: 6 лет 2 мес. назад | Торрент скачан:564 раза
Скачать  

03-11-2014 03:32 Покаяние Скачать торрент  


Покаяние / Repentance

«Karma is Action, Vipaka is Reaction»

Год выпуска: 2013
Страна:США
Жанр:ужасы, триллер
Продолжительность: 01:34:33
Перевод:Профессиональный многоголосый [Лицензия]
Режиссер:Филипп Кэлэнд
В ролях:

Форест Уитакер (Angel Sanchez), Энтони Маки (Tommy Carter), Майк Эппс (Ben Carter), Санаа Лэтэн (Maggie Carter), Николь Ари Паркер (Sophie Sanchez), Ариана Нил (Francesca Sanchez), Denise Milfort (Seer), Сэльма Пинкард (Aunt), Эйвери Эдвард Ландри (Boy), Марго Свишер (Red-head Woman), Аделла Готье (Angel's Mother), Джессика Медина (Angel's Cousin #1)
  • Описание:
    Успешный писатель и духовный наставник соглашается провести сеансы терапии со сложным клиентом, зацикленным на смерти своей матери. Он даже не догадывается, что таким образом подвергает свою собственную жизнь опасности.


    Качество:WEB-DLRip
    Формат:AVI
    Видео кодек: XviD
    Аудио кодек:AC3
    Видео: XviD, 720x400 (16:9), 1675 kbps, 23,976 fps, 0,243 bpp
    Аудио: AC3 / 5.1 / 48 kHz / 384 kbps / 16 bit

    Код:

    General
    Complete name                            : D:\Торенты\Repentance.2014.P.WEBDLRip.1400MB_.avi
    Format                                   : AVI
    Format/Info                              : Audio Video Interleave
    File size                                : 1.37 GiB
    Duration                                 : 1h 34mn
    Overall bit rate                         : 2 069 Kbps
    Writing application                      : VirtualDubMod 1.5.10.2 (build 2540/release)
    Writing library                          : VirtualDubMod build 2540/release

    Video
    ID                                       : 0
    Format                                   : MPEG-4 Visual
    Format profile                           : Advanced Simple@L5
    Format settings, BVOP                    : 2
    Format settings, QPel                    : No
    Format settings, GMC                     : No warppoints
    Format settings, Matrix                  : Default (MPEG)
    Codec ID                                 : XVID
    Codec ID/Hint                            : XviD
    Duration                                 : 1h 34mn
    Bit rate                                 : 1 676 Kbps
    Width                                    : 720 pixels
    Height                                   : 400 pixels
    Display aspect ratio                     : 16:9
    Frame rate                               : 23.976 fps
    Color space                              : YUV
    Chroma subsampling                       : 4:2:0
    Bit depth                                : 8 bits
    Scan type                                : Progressive
    Compression mode                         : Lossy
    Bits/(Pixel*Frame)                       : 0.243
    Stream size                              : 1.11 GiB (81%)
    Writing library                          : XviD 1.2.1 (UTC 2008-12-04)

    Audio
    ID                                       : 1
    Format                                   : AC-3
    Format/Info                              : Audio Coding 3
    Mode extension                           : CM (complete main)
    Codec ID                                 : 2000
    Duration                                 : 1h 34mn
    Bit rate mode                            : Constant
    Bit rate                                 : 384 Kbps
    Channel(s)                               : 6 channels
    Channel positions                        : Front: L C R, Side: L R, LFE
    Sampling rate                            : 48.0 KHz
    Bit depth                                : 16 bits
    Compression mode                         : Lossy
    Stream size                              : 260 MiB (19%)
    Alignment                                : Split accross interleaves
    Interleave, duration                     : 42 ms (1.00 video frame)
    Interleave, preload duration             : 500 ms


    Скриншоты:

    Срочно! Нужна помощь!


    © Оформление by Ravenpb.wtf



  • Скачать Покаяние через торрент http://pic.kartinco.top/images/6/ordi9.jpg Скачать фильм Покаяние через торрент бесплантно в хорошем качестве Описание:Успешный писатель и духовный наставник соглашается провести сеансы терапии со сложным клиентом, зацикленным на смерти своей ... 9.6 10 21
    Торрент: Зарегистрирован [2014-11-03 03:32] · скачан: 564 раз
    Статус: √ проверено
    Размер: 1.37 GB
    Как cкачать? Как скачать Покаяние через торрент | UTorrent

    % Раздел Тема Автор DL S | L
    Фильмы (WEB-DL 720p, 1080p) [ 3.83 GB ] Покаяние / Repentance [2013 WEB-DL 1080p / ] Ворон Скачать
    1 | 1

    28-11-2019 20:33  

    Отключить всю рекламу на сайте

    03-11-2014 06:12 Покаяние Скачать торрент  

    24 раз скачали и где комментарии.....................
    :film:pb.wtf



    21-03-2015 18:17 Покаяние Скачать торрент  

    Doctor_Zlo_666 писал(а):

    24 раз скачали и где комментарии.....................
    :film:

    Отличный психологический триллер, и актёры на высоте.
    А, да, и никаких ужасов там нет...pb.wtf



      Дорогой пользователь! Огромная просьба, поблагодарите релизера, оцените раздачу и оставьте свои комментарий, если Вы скачали Покаяние через торрент бесплатно! Внесите свою лепту в развитие PiratBit!
      Комментировать посты могут только пользователи прошедшие не сложную регистрацию
      Показать сообщения:    

      Покаяние через торрент
      Скачать бесплатно Покаяние
      Покаяние скачать торрент
      Покаяние смотреть онлайн
      Cкачать фильм Покаяние бесплатно
      Покаяние скачать торрент в хорошем качестве
      Покаяние смотреть онлайн бесплатно в хорошем качестве


      Вы не можете начинать темы
      Вы не можете отвечать на сообщения
      Вы не можете редактировать свои сообщения
      Вы не можете удалять свои сообщения
      Вы не можете голосовать в опросах
      Вы не можете прикреплять файлы к сообщениям
      Вы можете скачивать файлы