Ссылка на приватное зеркало нашего сайта всего за 1$. Внимание количество ограничено!!!

2 сезон

iTunes

1 сезон

1

iTunes

iTunes

iTunes

1 сезон

RePack

30

ИГРА 18+

pack

ВАЖНО

!!Акция!!

Alien_RageХит недели

RePack

MK11
pack

Забери бонус

RePack

jed

!!Акция!!

Alien_Rage

RePack

fifa19

RePack

Assassins Creed: Odyssey

RePack

NEED FOR SPEED™ PAYBACK

4 сезон

9 сезон

Бесстыжие 9 сезон

Все сериалы

все сериалы на PB.wtf

RePack

FAR CRY 5
  

Венецианский купец / The Merchant of Venice (Майкл Рэдфорд) [2004, драма, мелодрама, экранизация, BDRip 1080p] DVO pb.wtf

Венецианский купец через торрент pb.wtf

Размер: 12.11 GB | Добавлен: 5 лет 11 мес. назад | Торрент скачан:35 раз
Скачать  

03-11-2014 06:41 Венецианский купец Скачать торрент  

Венецианский купец / The Merchant of Venice

Год выпуска: 2004
Страна: США, Италия, Великобритания, Люксембург
Жанр: драма, мелодрама, экранизация
Продолжительность: 02:11:43
Перевод: профессиональный двухголосый
Субтитры: русские, английские

Режиссёр: Майкл Рэдфорд

В ролях: Аль Пачино, Джереми Айронс, Джозеф Файнс, Линн Коллинз, Зулейха Робинсон, Крис Маршалл, Чарли Кокс, Хизер Голденхерш, Маккензи Крук, Джон Сешнс, Грегор Фишер, Рон Кук, Аллен Корданер, Антон Роджерс, Дэвид Хэрвуд, Антонио Мартинес, Ал Уивер, Норберт Конн, Марк Маэс, Жан-Франсуа Вольфф, Питер Рименс, Том Лик, Жюль Вернер, Тони Шиена

Описание: Действие фильма происходит в Венеции, жители которой - жизнерадостные, беспечные, щедрые люди. Они недолюбливают и высмеивают иноверца Шейлока — угрюмого, алчного ростовщика, считающего каждую копейку. Шейлок отвечает им лютой ненавистью. Конфликт обостряется до того, что кровопролитие кажется неминуемым. Но тут вмешивается созидающая сила женской любви, которая смело противостоит мужским амбициям и побеждает! Экранизация одноименной пьесы У. Шекспира.



Качество: BDRip 1080p
Формат: MKV
Видео кодек: H.264
Аудио кодек: AC3, DTS
Видео: MPEG-4 AVC, 9432 Кбит/с, 1920x808, 23.976 кадра/с, 0.254 bpp
Аудио 1: русский, DTS, 1509 kbps, 6 ch, 48 kHz [профессиональный двухголосый, R5]
Аудио 2: русский, AC3, 448 kbps, 6 ch, 48 kHz [профессиональный двухголосый, Tycoon]
Аудио 3: английский, DTS, 1509 kbps, 6 ch, 48 kHz [оригинал]

Имеются неименованные главы/чаптеры.

Автор рипа msltel
frame I:1210 Avg QP:16.91 size:107194
frame P:36135 Avg QP:17.51 size: 74664
frame B:152158 Avg QP:19.80 size: 44336

Общее
Уникальный идентификатор : 229486686482142741712396791399053459076 (0xACA58733C06772E49196979367C2FE84)
Полное имя : D:VideoVenecianskij kupec.2004.BDRip.1080p.mkv
Формат : Matroska
Версия формата : Version 4 / Version 2
Размер файла : 12,1 Гбайт
Продолжительность : 2 ч. 11 м.
Общий поток : 13,2 Мбит/сек
Дата кодирования : UTC 2014-10-31 06:44:41
Программа кодирования : mkvmerge v7.3.0 ('Nouages') 64bit built on Oct 22 2014 18:53:34
Библиотека кодирования : libebml v1.3.0 + libmatroska v1.4.1
_STATISTICS_WRITING_APP : mkvmerge v7.3.0 ('Nouages') 64bit built on Oct 22 2014 18:53:34
_STATISTICS_WRITING_DATE_UTC : 2014-10-31 06:44:41
_STATISTICS_TAGS : BPS DURATION NUMBER_OF_FRAMES NUMBER_OF_BYTES
DURATION : 02:11:43.926000000
NUMBER_OF_FRAMES : 740993
NUMBER_OF_BYTES : 1490878064

Видео
Идентификатор : 1
Формат : AVC
Формат/Информация : Advanced Video Codec
Профиль формата : High@L4.1
Параметр CABAC формата : Да
Параметр ReFrames формата : 4 кадра
Идентификатор кодека : V_MPEG4/ISO/AVC
Продолжительность : 2 ч. 11 м.
Битрейт : 9432 Кбит/сек
Ширина : 1920 пикселей
Высота : 808 пикселей
Соотношение сторон : 2,40:1
Режим частоты кадров : Постоянный
Частота кадров : 23,976 кадра/сек
Цветовое пространство : YUV
Субдискретизация насыщенности : 4:2:0
Битовая глубина : 8 бит
Тип развёртки : Прогрессивная
Бит/(Пиксели*Кадры) : 0.254
Размер потока : 8,68 Гбайт (72%)
Заголовок : BDRip -- STarankov
Библиотека кодирования : x264 core 142 r2431 ac76440
Настройки программы : cabac=1 / ref=4 / deblock=1:-1:-1 / analyse=0x3:0x113 / me=umh / subme=10 / psy=1 / psy_rd=1.00:0.15 / mixed_ref=1 / me_range=32 / chroma_me=1 / trellis=2 / 8x8dct=1 / cqm=0 / deadzone=21,11 / fast_pskip=1 / chroma_qp_offset=-3 / threads=6 / lookahead_threads=1 / sliced_threads=0 / nr=0 / decimate=1 / interlaced=0 / bluray_compat=0 / constrained_intra=0 / bframes=8 / b_pyramid=2 / b_adapt=2 / b_bias=0 / direct=3 / weightb=1 / open_gop=0 / weightp=2 / keyint=230 / keyint_min=23 / scenecut=40 / intra_refresh=0 / rc_lookahead=40 / rc=crf / mbtree=0 / crf=20.0 / qcomp=0.60 / qpmin=0 / qpmax=69 / qpstep=4 / vbv_maxrate=50000 / vbv_bufsize=62500 / crf_max=0.0 / nal_hrd=none / filler=0 / ip_ratio=1.40 / pb_ratio=1.30 / aq=1:1.00
Язык : English
Default : Да
Forced : Нет
DURATION : 02:11:43.855000000
NUMBER_OF_FRAMES : 189503
NUMBER_OF_BYTES : 9573817234
_STATISTICS_WRITING_APP : mkvmerge v7.3.0 ('Nouages') 64bit built on Oct 22 2014 18:53:34
_STATISTICS_WRITING_DATE_UTC : 2014-10-31 06:44:41
_STATISTICS_TAGS : BPS DURATION NUMBER_OF_FRAMES NUMBER_OF_BYTES

Аудио #1
Идентификатор : 2
Формат : DTS
Формат/Информация : Digital Theater Systems
Режим : 16
Параметр Endianness формата : Big
Идентификатор кодека : A_DTS
Продолжительность : 2 ч. 11 м.
Вид битрейта : Постоянный
Битрейт : 1509 Кбит/сек
Каналы : 6 каналов
Расположение каналов : Front: L C R, Side: L R, LFE
Частота : 48,0 КГц
Битовая глубина : 16 бит
Метод сжатия : С потерями
Размер потока : 1,39 Гбайт (11%)
Заголовок : DVO (R5)
Язык : Russian
Default : Да
Forced : Нет

Аудио #2
Идентификатор : 3
Формат : AC-3
Формат/Информация : Audio Coding 3
Расширение режима : CM (complete main)
Параметр Endianness формата : Big
Идентификатор кодека : A_AC3
Продолжительность : 2 ч. 11 м.
Вид битрейта : Постоянный
Битрейт : 448 Кбит/сек
Каналы : 6 каналов
Расположение каналов : Front: L C R, Side: L R, LFE
Частота : 48,0 КГц
Битовая глубина : 16 бит
Метод сжатия : С потерями
Размер потока : 422 Мбайт (3%)
Заголовок : DVO (Tycoon)
Язык : Russian
Default : Нет
Forced : Нет

Аудио #3
Идентификатор : 4
Формат : DTS
Формат/Информация : Digital Theater Systems
Режим : 16
Параметр Endianness формата : Big
Идентификатор кодека : A_DTS
Продолжительность : 2 ч. 11 м.
Вид битрейта : Постоянный
Битрейт : 1509 Кбит/сек
Каналы : 6 каналов
Расположение каналов : Front: L C R, Side: L R, LFE
Частота : 48,0 КГц
Битовая глубина : 16 бит
Метод сжатия : С потерями
Размер потока : 1,39 Гбайт (11%)
Заголовок : Original
Язык : English
Default : Нет
Forced : Нет

Текст #1
Идентификатор : 5
Формат : UTF-8
Идентификатор кодека : S_TEXT/UTF8
Идентификатор кодека/Информация : UTF-8 Plain Text
Заголовок : русский
Язык : Russian
Default : Нет
Forced : Нет

Текст #2
Идентификатор : 6
Формат : UTF-8
Идентификатор кодека : S_TEXT/UTF8
Идентификатор кодека/Информация : UTF-8 Plain Text
Заголовок : английский
Default : Нет
Forced : Нет

Меню
00:00:00.000 : :Chapter 01
00:06:35.353 : :Chapter 02
00:12:26.953 : :Chapter 03
00:18:52.672 : :Chapter 04
00:25:48.421 : :Chapter 05
00:30:40.212 : :Chapter 06
00:39:35.747 : :Chapter 07
00:43:37.156 : :Chapter 08
00:50:27.357 : :Chapter 09
00:58:57.242 : :Chapter 10
01:06:30.111 : :Chapter 11
01:12:57.246 : :Chapter 12
01:20:24.820 : :Chapter 13
01:23:46.062 : :Chapter 14
01:31:42.705 : :Chapter 15
01:38:51.008 : :Chapter 16
01:43:59.316 : :Chapter 17
01:49:59.342 : :Chapter 18
01:55:17.702 : :Chapter 19
02:05:33.025 : :Chapter 20
pb.wtf



Скачать Венецианский купец через торрент http://i66.fastpic.ru/big/2014/1031/1f/d653f666276a492994f4bb7a9bef221f.jpg Скачать фильм Венецианский купец через торрент бесплантно в хорошем качестве Описание: Действие фильма происходит в Венеции, жители которой - жизнерадостные, беспечные, щедрые люди. Они недолюбливают и высмеивают ... 7.5 10 2
Торрент: Зарегистрирован [2014-11-03 06:41] · скачан: 35 раз
Статус: √ проверено
Размер: 12.11 GB
Как cкачать? Как скачать Венецианский купец через торрент | qTorrent

% Раздел Тема Автор DL S | L
Фильмы [HD 720p, 1080p] (Хороший звук DUB, MVO) [ 4.86 GB ] Венецианский купец / The Merchant of Venice [2004 экранизация BDRip 720p] DVO msltel Скачать
1 | 0

28-11-2019 20:33  

Отключить всю рекламу на сайте

    Дорогой пользователь! Огромная просьба, поблагодарите релизера, оцените раздачу и оставьте свои комментарий, если Вы скачали Венецианский купец через торрент бесплатно! Внесите свою лепту в развитие PiratBit!
    Комментировать посты могут только пользователи прошедшие не сложную регистрацию
    Показать сообщения:    

    Венецианский купец через торрент
    Скачать бесплатно Венецианский купец
    Венецианский купец скачать торрент
    Венецианский купец смотреть онлайн
    Cкачать фильм Венецианский купец бесплатно
    Венецианский купец скачать торрент в хорошем качестве
    Венецианский купец смотреть онлайн бесплатно в хорошем качестве


    Вы не можете начинать темы
    Вы не можете отвечать на сообщения
    Вы не можете редактировать свои сообщения
    Вы не можете удалять свои сообщения
    Вы не можете голосовать в опросах
    Вы не можете прикреплять файлы к сообщениям
    Вы можете скачивать файлы