2 сезон

iTunes

1 сезон

1

iTunes

iTunes

iTunes

1 сезон

RePack

30

ИГРА 18+

pack

ВАЖНО

!!Акция!!

Alien_RageХит недели

RePack

MK11
pack

Забери бонус

RePack

jed

!!Акция!!

Alien_Rage

RePack

fifa19

RePack

Assassins Creed: Odyssey

RePack

NEED FOR SPEED™ PAYBACK

4 сезон

9 сезон

Бесстыжие 9 сезон

Все сериалы

все сериалы на PB.wtf

RePack

FAR CRY 5
  

Смертельный номер / Death Defying Acts (Джиллиан Армстронг) [2007, триллер, мелодрама, драма, BDRip 1080p] DUB pb.wtf

Смертельный номер через торрент pb.wtf

Размер: 8.49 GB | Добавлен: 5 лет 11 мес. назад | Торрент скачан:43 раза
Скачать  

03-11-2014 07:10 Смертельный номер Скачать торрент  

Смертельный номер / Death Defying Acts

Год выпуска: 2007
Страна: США
Жанр: триллер, мелодрама, драма
Продолжительность: 01:36:37
Перевод: дублированный
Субтитры: русские

Режиссёр: Джиллиан Армстронг

В ролях: Кэтрин Зета-Джонс, Гай Пирс, Тимоти Сполл, Сирша Ронан, Джек Бейли, Аарон Браун, Маккэй Кроуфорд, Мартин Фишер, Тим Фрост, Сильвия Ломбардо

Описание: Во время гастролей по Британии в 1926 году великий иллюзионист Гарри Гудини вспыхивает страстью к жительнице Эдинбурга, женщине-медиуму. Она вызывается вступить в контакт с духом погибшей матери Гудини, за что тот посулил щедрую награду. Но её способности по большей степени шарлатанство, и, в результате, всё идёт совсем не по плану...



Качество: BDRip 1080p Сравнение с исходником
Формат: MKV
Видео кодек: H.264
Аудио кодек: AC3, DTS
Видео: 11.1 Mbps, 1920х800, 24 кадра/с, 0.302 bpp
Аудио 1: русский, DTS, 755 kbps, 6 ch, 48 kHz [дублированный]
Аудио 2: английский, AC3, 448 kbps, 6 ch, 48 kHz [оригинал]

Имеются неименованные главы/чаптеры.

Автор рипа msltel
frame I:965 Avg QP:15.19 size:185423
frame P:25922 Avg QP:16.47 size:114819
frame B:111919 Avg QP:18.30 size: 45453

Общее
Уникальный идентификатор : 179565280472616952171663079015854925359 (0x871703DB32C3826096D7E63DE8D8662F)
Полное имя : D:VideoSmertelnyj nomer.2007.BDRip.1080p.mkv
Формат : Matroska
Версия формата : Version 4 / Version 2
Размер файла : 8,49 Гбайт
Продолжительность : 1 ч. 36 м.
Общий поток : 12,6 Мбит/сек
Дата кодирования : UTC 2014-11-01 14:09:21
Программа кодирования : mkvmerge v7.3.0 ('Nouages') 64bit built on Oct 22 2014 18:53:34
Библиотека кодирования : libebml v1.3.0 + libmatroska v1.4.1
DURATION : 01:29:31.457000000
NUMBER_OF_FRAMES : 1056
NUMBER_OF_BYTES : 53367
_STATISTICS_WRITING_APP : mkvmerge v7.3.0 ('Nouages') 64bit built on Oct 22 2014 18:53:34
_STATISTICS_WRITING_DATE_UTC : 2014-11-01 14:09:21
_STATISTICS_TAGS : BPS DURATION NUMBER_OF_FRAMES NUMBER_OF_BYTES

Видео
Идентификатор : 1
Формат : AVC
Формат/Информация : Advanced Video Codec
Профиль формата : High@L4.1
Параметр CABAC формата : Да
Параметр ReFrames формата : 4 кадра
Идентификатор кодека : V_MPEG4/ISO/AVC
Продолжительность : 1 ч. 36 м.
Битрейт : 11,1 Мбит/сек
Ширина : 1920 пикселей
Высота : 800 пикселей
Соотношение сторон : 2,40:1
Режим частоты кадров : Постоянный
Частота кадров : 24,000 кадра/сек
Цветовое пространство : YUV
Субдискретизация насыщенности : 4:2:0
Битовая глубина : 8 бит
Тип развёртки : Прогрессивная
Бит/(Пиксели*Кадры) : 0.302
Размер потока : 7,51 Гбайт (88%)
Заголовок : BDRip -- STarankov
Библиотека кодирования : x264 core 142 r2431 ac76440
Настройки программы : cabac=1 / ref=4 / deblock=1:-1:-1 / analyse=0x3:0x113 / me=umh / subme=10 / psy=1 / psy_rd=1.00:0.15 / mixed_ref=1 / me_range=32 / chroma_me=1 / trellis=2 / 8x8dct=1 / cqm=0 / deadzone=21,11 / fast_pskip=1 / chroma_qp_offset=-3 / threads=6 / lookahead_threads=1 / sliced_threads=0 / nr=0 / decimate=1 / interlaced=0 / bluray_compat=0 / constrained_intra=0 / bframes=8 / b_pyramid=2 / b_adapt=2 / b_bias=0 / direct=3 / weightb=1 / open_gop=0 / weightp=2 / keyint=230 / keyint_min=23 / scenecut=40 / intra_refresh=0 / rc_lookahead=40 / rc=crf / mbtree=0 / crf=18.0 / qcomp=0.60 / qpmin=0 / qpmax=69 / qpstep=4 / vbv_maxrate=50000 / vbv_bufsize=62500 / crf_max=0.0 / nal_hrd=none / filler=0 / ip_ratio=1.40 / pb_ratio=1.30 / aq=1:1.00
Язык : English
Default : Да
Forced : Нет
DURATION : 01:36:23.584000000
NUMBER_OF_FRAMES : 138806
NUMBER_OF_BYTES : 8242329226
_STATISTICS_WRITING_APP : mkvmerge v7.3.0 ('Nouages') 64bit built on Oct 22 2014 18:53:34
_STATISTICS_WRITING_DATE_UTC : 2014-11-01 14:09:21
_STATISTICS_TAGS : BPS DURATION NUMBER_OF_FRAMES NUMBER_OF_BYTES

Аудио #1
Идентификатор : 2
Формат : DTS
Формат/Информация : Digital Theater Systems
Режим : 16
Параметр Endianness формата : Big
Идентификатор кодека : A_DTS
Продолжительность : 1 ч. 36 м.
Вид битрейта : Постоянный
Битрейт : 755 Кбит/сек
Каналы : 6 каналов
Расположение каналов : Front: L C R, Side: L R, LFE
Частота : 48,0 КГц
Битовая глубина : 24 бит
Метод сжатия : С потерями
Размер потока : 521 Мбайт (6%)
Заголовок : DUB
Язык : Russian
Default : Да
Forced : Нет

Аудио #2
Идентификатор : 3
Формат : AC-3
Формат/Информация : Audio Coding 3
Расширение режима : CM (complete main)
Параметр Endianness формата : Big
Идентификатор кодека : A_AC3
Продолжительность : 1 ч. 36 м.
Вид битрейта : Постоянный
Битрейт : 448 Кбит/сек
Каналы : 6 каналов
Расположение каналов : Front: L C R, Side: L R, LFE
Частота : 48,0 КГц
Битовая глубина : 16 бит
Метод сжатия : С потерями
Размер потока : 310 Мбайт (4%)
Заголовок : Original
Язык : English
Default : Нет
Forced : Нет

Текст
Идентификатор : 4
Формат : UTF-8
Идентификатор кодека : S_TEXT/UTF8
Идентификатор кодека/Информация : UTF-8 Plain Text
Заголовок : русский
Язык : Russian
Default : Нет
Forced : Нет

Меню
00:00:00.000 : :Chapter 01
00:07:29.083 : :Chapter 02
00:13:19.791 : :Chapter 03
00:19:03.750 : :Chapter 04
00:27:37.041 : :Chapter 05
00:33:13.125 : :Chapter 06
00:38:58.958 : :Chapter 07
00:48:50.875 : :Chapter 08
00:54:27.000 : :Chapter 09
01:01:40.500 : :Chapter 10
01:08:32.500 : :Chapter 11
01:15:19.791 : :Chapter 12
01:22:34.333 : :Chapter 13
01:26:01.416 : :Chapter 14
01:28:33.291 : :Chapter 15
pb.wtf



Скачать Смертельный номер через торрент http://i64.fastpic.ru/big/2014/1101/a1/4a1d162d15c1d22092f8f79733e81ea1.jpg Скачать фильм Смертельный номер через торрент бесплантно в хорошем качестве Описание: Во время гастролей по Британии в 1926 году великий иллюзионист Гарри Гудини вспыхивает страстью к жительнице Эдинбурга, ... 10 10 5
Info! Серебряная раздача, засчитывается только 50% скачанного.
Торрент: Зарегистрирован [2014-11-03 07:10] · скачан: 43 раз
Статус: √ проверено
Размер: 8.49 GB
Как cкачать? Как скачать Смертельный номер через торрент | qTorrent

% Раздел Тема Автор DL S | L
Фильмы 2006-2008 [ 1.46 GB ] Смертельный номер / Death Defying Acts [2007 BDRip от HQ-ViDEO] DUB Ворон Скачать
1 | 0

28-11-2019 20:33  

Отключить всю рекламу на сайте

    Дорогой пользователь! Огромная просьба, поблагодарите релизера, оцените раздачу и оставьте свои комментарий, если Вы скачали Смертельный номер через торрент бесплатно! Внесите свою лепту в развитие PiratBit!
    Комментировать посты могут только пользователи прошедшие не сложную регистрацию
    Показать сообщения:    

    Смертельный номер через торрент
    Скачать бесплатно Смертельный номер
    Смертельный номер скачать торрент
    Смертельный номер смотреть онлайн
    Cкачать фильм Смертельный номер бесплатно
    Смертельный номер скачать торрент в хорошем качестве
    Смертельный номер смотреть онлайн бесплатно в хорошем качестве


    Вы не можете начинать темы
    Вы не можете отвечать на сообщения
    Вы не можете редактировать свои сообщения
    Вы не можете удалять свои сообщения
    Вы не можете голосовать в опросах
    Вы не можете прикреплять файлы к сообщениям
    Вы можете скачивать файлы