Ссылка на приватное зеркало нашего сайта всего за 1$. Внимание количество ограничено!!!

2 сезон

iTunes

1 сезон

1

iTunes

iTunes

iTunes

1 сезон

RePack

30

ИГРА 18+

pack

ВАЖНО

!!Акция!!

Alien_RageХит недели

RePack

MK11
pack

Забери бонус

RePack

jed

!!Акция!!

Alien_Rage

RePack

fifa19

RePack

Assassins Creed: Odyssey

RePack

NEED FOR SPEED™ PAYBACK

4 сезон

9 сезон

Бесстыжие 9 сезон

Все сериалы

все сериалы на PB.wtf

RePack

FAR CRY 5
  

Дорога / La strada (Федерико Феллини) [1954, драма, BDRip 720p] DUB, DVO, VO pb.wtf

Дорога через торрент pb.wtf

Размер: 4.79 GB | Добавлен: 5 лет 11 мес. назад | Торрент скачан:18 раз
Скачать  

03-11-2014 07:57 Дорога Скачать торрент  

Дорога / La strada

Год выпуска: 1954
Страна: Италия
Жанр: драма
Продолжительность: 01:48:15
Перевод: дублированный, профессиональный двухголосый, одноголосый закадровый
Субтитры: русские (на места без перевода Деваль-Видео), русские, английские

Режиссёр: Федерико Феллини

В ролях: Энтони Куинн, Джульетта Мазина, Ричард Бэйзхарт, Альдо Сильвани, Марселла Ровере, Ливия Вентурини, Густаво Джиорджи, Ями Камадева, Марио Пассанте, Анна Примула, Гоффредо Унгер, Наццарено Дзамперла

Описание: Фильм о нечеловеческой жестокости и человеческом страдании, о непростых отношениях немножко сумасшедшей, взъерошенной, смешной, неуклюжей и нежной Джельсомины и мрачного, массивного, грубого и звероподобного Дзампано — женщины и мужчины, совершенно чуждых друг другу, но волею судеб оказавшихся вместе...



Качество: BDRip 720p
Формат: MKV
Видео кодек: H.264
Аудио кодек: AC3
Видео: MPEG-4 AVC, 5253 Kбит/с, 958x720, 23.976 кадра/с, 0.318 bpp
Аудио 1: русский, AC3, 192 kbps, 2 ch, 48 kHz [дублированный, есть вставки закадрового перевода]
Аудио 2: русский, AC3, 192 kbps, 2 ch, 48 kHz [профессиональный двухголосый, Film prestige]
Аудио 3: русский, AC3, 192 kbps, 2 ch, 48 kHz [профессиональный двухголосый, Кармен dидео]
Аудио 4: русский, AC3, 192 kbps, 2 ch, 48 kHz [одноголосый закадровый, Деваль-Видео/Видеоимпульс]
Аудио 5: итальянский, AC3, 192 kbps, 2 ch, 48 kHz [оригинал]

Имеются поименованные главы/чаптеры.

Автор рипа msltel
Оскар, 1957 год
Победитель (1):
Лучший фильм на иностранном языке — «Италия»

Номинации (1):
Лучший оригинальный сценарий

Британская академия, 1956 год
Номинации (2):
Лучший фильм
Лучшая иностранная актриса (Джульетта Мазина)

Венецианский кинофестиваль, 1954 год
Победитель (1):
Серебряный лев

Номинации (1):
Золотой лев
frame I:974 Avg QP:18.52 size: 82527
frame P:27952 Avg QP:19.64 size: 45344
frame B:126809 Avg QP:21.52 size: 23796

Общее
Уникальный идентификатор : 249705623168258988036380557767896405156 (0xBBDB8DBEE68FF8089E1375D1098B14A4)
Полное имя : D:VideoDoroga.1954.BDRip.720p.mkv
Формат : Matroska
Версия формата : Version 4 / Version 2
Размер файла : 4,79 Гбайт
Продолжительность : 1 ч. 48 м.
Общий поток : 6340 Кбит/сек
Дата кодирования : UTC 2014-11-03 03:34:20
Программа кодирования : mkvmerge v7.3.0 ('Nouages') 64bit built on Oct 22 2014 18:53:34
Библиотека кодирования : libebml v1.3.0 + libmatroska v1.4.1
_STATISTICS_WRITING_APP : mkvmerge v7.3.0 ('Nouages') 64bit built on Oct 22 2014 18:53:34
_STATISTICS_WRITING_DATE_UTC : 2014-11-03 03:34:20
_STATISTICS_TAGS : BPS DURATION NUMBER_OF_FRAMES NUMBER_OF_BYTES
DURATION : 01:45:54.113000000
NUMBER_OF_FRAMES : 973
NUMBER_OF_BYTES : 27651

Видео
Идентификатор : 1
Формат : AVC
Формат/Информация : Advanced Video Codec
Профиль формата : High@L4.1
Параметр CABAC формата : Да
Параметр ReFrames формата : 9 кадров
Идентификатор кодека : V_MPEG4/ISO/AVC
Продолжительность : 1 ч. 48 м.
Битрейт : 5253 Кбит/сек
Ширина : 958 пикселей
Высота : 720 пикселей
Соотношение сторон : 4:3
Режим частоты кадров : Постоянный
Частота кадров : 23,976 кадра/сек
Цветовое пространство : YUV
Субдискретизация насыщенности : 4:2:0
Битовая глубина : 8 бит
Тип развёртки : Прогрессивная
Бит/(Пиксели*Кадры) : 0.318
Размер потока : 3,97 Гбайт (83%)
Заголовок : BDRip -- STarankov
Библиотека кодирования : x264 core 142 r2431 ac76440
Настройки программы : cabac=1 / ref=9 / deblock=1:-1:-1 / analyse=0x3:0x113 / me=umh / subme=10 / psy=1 / psy_rd=1.00:0.15 / mixed_ref=1 / me_range=32 / chroma_me=1 / trellis=2 / 8x8dct=1 / cqm=0 / deadzone=21,11 / fast_pskip=1 / chroma_qp_offset=-3 / threads=6 / lookahead_threads=1 / sliced_threads=0 / nr=0 / decimate=1 / interlaced=0 / bluray_compat=0 / constrained_intra=0 / bframes=8 / b_pyramid=2 / b_adapt=2 / b_bias=0 / direct=3 / weightb=1 / open_gop=0 / weightp=2 / keyint=230 / keyint_min=23 / scenecut=40 / intra_refresh=0 / rc_lookahead=40 / rc=crf / mbtree=0 / crf=18.8 / qcomp=0.60 / qpmin=0 / qpmax=69 / qpstep=4 / vbv_maxrate=50000 / vbv_bufsize=62500 / crf_max=0.0 / nal_hrd=none / filler=0 / ip_ratio=1.40 / pb_ratio=1.30 / aq=1:1.00
Язык : Italian
Default : Да
Forced : Нет
DURATION : 01:48:15.448000000
NUMBER_OF_FRAMES : 155735
NUMBER_OF_BYTES : 4365417304
_STATISTICS_WRITING_APP : mkvmerge v7.3.0 ('Nouages') 64bit built on Oct 22 2014 18:53:34
_STATISTICS_WRITING_DATE_UTC : 2014-11-03 03:34:20
_STATISTICS_TAGS : BPS DURATION NUMBER_OF_FRAMES NUMBER_OF_BYTES

Аудио #1
Идентификатор : 2
Формат : AC-3
Формат/Информация : Audio Coding 3
Расширение режима : CM (complete main)
Параметр Endianness формата : Big
Идентификатор кодека : A_AC3
Продолжительность : 1 ч. 48 м.
Вид битрейта : Постоянный
Битрейт : 192 Кбит/сек
Каналы : 2 канала
Расположение каналов : Front: L R
Частота : 48,0 КГц
Битовая глубина : 16 бит
Метод сжатия : С потерями
Размер потока : 149 Мбайт (3%)
Заголовок : DUB
Язык : Russian
Default : Да
Forced : Нет

Аудио #2
Идентификатор : 3
Формат : AC-3
Формат/Информация : Audio Coding 3
Расширение режима : CM (complete main)
Параметр Endianness формата : Big
Идентификатор кодека : A_AC3
Продолжительность : 1 ч. 48 м.
Вид битрейта : Постоянный
Битрейт : 192 Кбит/сек
Каналы : 2 канала
Расположение каналов : Front: L R
Частота : 48,0 КГц
Битовая глубина : 16 бит
Метод сжатия : С потерями
Размер потока : 149 Мбайт (3%)
Заголовок : DVO (Film prestige)
Язык : Russian
Default : Нет
Forced : Нет

Аудио #3
Идентификатор : 4
Формат : AC-3
Формат/Информация : Audio Coding 3
Расширение режима : CM (complete main)
Параметр Endianness формата : Big
Идентификатор кодека : A_AC3
Продолжительность : 1 ч. 48 м.
Вид битрейта : Постоянный
Битрейт : 192 Кбит/сек
Каналы : 2 канала
Расположение каналов : Front: L R
Частота : 48,0 КГц
Битовая глубина : 16 бит
Метод сжатия : С потерями
Размер потока : 149 Мбайт (3%)
Заголовок : DVO (Karmen video)
Язык : Russian
Default : Нет
Forced : Нет

Аудио #4
Идентификатор : 5
Формат : AC-3
Формат/Информация : Audio Coding 3
Расширение режима : CM (complete main)
Параметр Endianness формата : Big
Идентификатор кодека : A_AC3
Продолжительность : 1 ч. 48 м.
Вид битрейта : Постоянный
Битрейт : 192 Кбит/сек
Каналы : 2 канала
Расположение каналов : Front: L R
Частота : 48,0 КГц
Битовая глубина : 16 бит
Метод сжатия : С потерями
Размер потока : 149 Мбайт (3%)
Заголовок : VO (одноголосый любительский, Деваль-Видео/Видеоимпульс)
Язык : Russian
Default : Нет
Forced : Нет

Аудио #5
Идентификатор : 6
Формат : AC-3
Формат/Информация : Audio Coding 3
Расширение режима : CM (complete main)
Параметр Endianness формата : Big
Идентификатор кодека : A_AC3
Продолжительность : 1 ч. 48 м.
Вид битрейта : Постоянный
Битрейт : 192 Кбит/сек
Каналы : 2 канала
Расположение каналов : Front: L R
Частота : 48,0 КГц
Битовая глубина : 16 бит
Метод сжатия : С потерями
Размер потока : 149 Мбайт (3%)
Заголовок : Original
Язык : Italian
Default : Нет
Forced : Нет

Текст #1
Идентификатор : 7
Формат : UTF-8
Идентификатор кодека : S_TEXT/UTF8
Идентификатор кодека/Информация : UTF-8 Plain Text
Заголовок : русский (на места без перевода Деваль-Видео)
Язык : Russian
Default : Нет
Forced : Нет

Текст #2
Идентификатор : 8
Формат : UTF-8
Идентификатор кодека : S_TEXT/UTF8
Идентификатор кодека/Информация : UTF-8 Plain Text
Заголовок : русский
Язык : Russian
Default : Нет
Forced : Нет

Текст #3
Идентификатор : 9
Формат : UTF-8
Идентификатор кодека : S_TEXT/UTF8
Идентификатор кодека/Информация : UTF-8 Plain Text
Заголовок : английский
Default : Нет
Forced : Нет

Меню
00:00:00.000 : en:Logos / Opening Credits
00:02:05.500 : en:Ten Thousand Lire
00:06:24.384 : en:The Strongman
00:07:37.707 : en:Tools of the Trade
00:11:56.216 : en:Di Constanzo, Gelsomina
00:14:01.924 : en:Farce
00:16:31.866 : en:Lamb and Veal
00:21:48.557 : en:Waiting
00:25:50.716 : en:Tomatoes
00:28:01.889 : en:The Wedding Party
00:33:35.680 : en:Deeee-Dee-Dee-De-Deee
00:37:35.378 : en:Processions
00:40:52.867 : en:A Hundred and Twenty-Five Feet in the Air
00:43:27.480 : en:"Get In!"
00:45:58.839 : en:Roman Circus
00:49:26.380 : en:Circo Giraffa
00:55:16.313 : en:"A Very Sad Song"
01:01:01.992 : en:The Pebble
01:10:20.299 : en:The Jail
01:14:37.098 : en:The Convent
01:18:36.378 : en:"Do You Like Me a Little?"
01:23:30.881 : en:Flat Tire, Broken Watch
01:28:10.952 : en:"The Fool Is Hurt"
01:31:40.620 : en:"It's Cold"
01:38:08.382 : en:Circo Medini
01:43:13.354 : en:Zampanò's Song
pb.wtf



Скачать Дорога через торрент http://i68.fastpic.ru/big/2014/1102/1b/f5b58553e33cef66d3667dc648d6791b.jpg Скачать фильм Дорога через торрент бесплантно в хорошем качестве Описание: Фильм о нечеловеческой жестокости и человеческом страдании, о непростых отношениях немножко сумасшедшей, взъерошенной, смешной, ... 8.3 10 3
Торрент: Зарегистрирован [2014-11-03 07:57] · скачан: 18 раз
Статус: √ проверено
Размер: 4.79 GB
Как cкачать? Как скачать Дорога через торрент | qTorrent

% Раздел Тема Автор DL S | L
Фильмы [HD 720p, 1080p] (Хороший звук DUB, MVO) [ 9.88 GB ] Дорога / La strada [1954 BDRip 1080p] DUB DVO VO msltel Скачать
1 | 0

28-11-2019 20:33  

Отключить всю рекламу на сайте

    Дорогой пользователь! Огромная просьба, поблагодарите релизера, оцените раздачу и оставьте свои комментарий, если Вы скачали Дорога через торрент бесплатно! Внесите свою лепту в развитие PiratBit!
    Комментировать посты могут только пользователи прошедшие не сложную регистрацию
    Показать сообщения:    

    Дорога через торрент
    Скачать бесплатно Дорога
    Дорога скачать торрент
    Дорога смотреть онлайн
    Cкачать фильм Дорога бесплатно
    Дорога скачать торрент в хорошем качестве
    Дорога смотреть онлайн бесплатно в хорошем качестве


    Вы не можете начинать темы
    Вы не можете отвечать на сообщения
    Вы не можете редактировать свои сообщения
    Вы не можете удалять свои сообщения
    Вы не можете голосовать в опросах
    Вы не можете прикреплять файлы к сообщениям
    Вы можете скачивать файлы