Ссылка на приватное зеркало нашего сайта всего за 1$. Внимание количество ограничено!!!

2 сезон

iTunes

1 сезон

1

iTunes

iTunes

iTunes

1 сезон

RePack

30

ИГРА 18+

pack

ВАЖНО

!!Акция!!

Alien_RageХит недели

RePack

MK11
pack

Забери бонус

RePack

jed

!!Акция!!

Alien_Rage

RePack

fifa19

RePack

Assassins Creed: Odyssey

RePack

NEED FOR SPEED™ PAYBACK

4 сезон

9 сезон

Бесстыжие 9 сезон

Все сериалы

все сериалы на PB.wtf

RePack

FAR CRY 5
  

Черный ястреб / Падение Чёрного ястреба / Black Hawk Down (Ридли Скотт ) [2001, триллер, драма, военный, BDRip 720p, Дубляж,Профессиональный (двухголосый),+MVO,AVO pb.wtf

Черный ястреб через торрент pb.wtf

Размер: 7.96 GB | Добавлен: 5 лет 11 мес. назад | Торрент скачан:169 раз
Скачать  

03-11-2014 08:59 Черный ястреб Скачать торрент  

Черный ястреб / Black Hawk Down
«Спецназ не сдается. Он выполняет приказ или погибает»


Год выпуска: 2001
Страна: США, Великобритания
Жанр: триллер, драма, военный, история
Продолжительность: 02:24:17
Перевод: Дублированный - [Лицензия]
Профессиональный многоголосый
Профессиональный (двухголосый) [П.Гланц и И.Королева]
Авторский (одноголосый)[Юрий Живов]

Субтитры: Русские (2 вида)

Режиссер: Ридли Скотт
В ролях: Джош Хартнетт , Юэн МакГрегор , Эрик Бана , Уильям Фихтнер , Сэм Шепард , Джейсон Айзекс , Том Сайзмор , Рон Элдард , Том Харди , Николай Костер-Вальдау , Йоан Гриффит , Ким Коутс
Описание::
Сомали, 1993 год. Страна вымирает от голода, число жертв превысило триста тысяч человек. Миротворческие силы ООН пытаются восстановить порядок и организовать поставки продовольствия. В помощь им Вашингтон выслал полтысячи человек из элитных подразделений американской армии, знаменитые отряды «Дельта» и армейских рейнджеров.
В городе Могадишо хозяйничает и творит беспредел полевой командир Айдид, убивая мирных граждан и отбирая гуманитарную помощь. В определенный момент орлы из Вашингтона решают провести операцию по захвату Айдида в его резиденции.
Молодой офицер, только что назначенный взводным; матерый сержант, ведущий колонну машин; казарменный писарь, не нюхавший пороху; экипажи сбитых вертолетов, вынужденных ждать подкрепления и эвакуации; пара солдат, которых забыли взять с собой при смене позиции; генерал, сидящий в штабе и наблюдающий со спутника, как погибают его солдаты...

Качество: BDRip 720p (исходник Blu-ray)
Контейнер (Расширение): MKV
Видео кодек: AVC
Аудио кодек: AC3
Видео: 1280x536 (2.40:1), 4909 Кбит/сек, 23,976 кадр/сек, 0,298 Бит/[Пиксели*Кадры]
Аудио №1: русский / AC3 / 5.1 / 48 kHz / 448 kbps / 16 bit |Дубляж, Blu-ray CEE |
Аудио №2: русский / AC3 / 5.1 / 48 kHz / 640 kbps / 16 bit |Многоголосый закадровый, Карусель |
Аудио №3: русский / AC3 / 5.1 / 48 kHz / 640 kbps / 16 bit |Двухголосый закадровый, П.Гланц и И.Королёва|
Аудио №4: русский / AC3 / 5.1 / 48 kHz / 640 kbps / 16 bit |Авторский одноголосый закадровый, Ю.Живов |
Аудио №5: английский / AC3 / 5.1 / 48 kHz / 640 kbps / 16 bit
Навигация по главам(Чаптеры): есть
Автор рипа: Сообщество:

Код:

Format                                   : Matroska
Format version                           : Version 2
File size                                : 7.96 GiB
Duration                                 : 2h 24mn
Overall bit rate                         : 7 897 Kbps
Movie name                               : Padenie Chernogo Jastreba.(2001).BDRip.720p.[denis100]
Encoded date                             : UTC 2013-12-30 09:56:52
Writing application                      : mkvmerge v5.8.0 ('No Sleep / Pillow') built on Sep  2 2012 15:37:04
Writing library                          : libebml v1.2.3 + libmatroska v1.3.0

Video
ID                                       : 1
Format                                   : AVC
Format/Info                              : Advanced Video Codec
Format profile                           : High@L4.1
Format settings, CABAC                   : Yes
Format settings, ReFrames                : 11 frames
Codec ID                                 : V_MPEG4/ISO/AVC
Duration                                 : 2h 24mn
Bit rate                                 : 4 909 Kbps
Width                                    : 1 280 pixels
Height                                   : 536 pixels
Display aspect ratio                     : 2.40:1
Frame rate                               : 23.976 fps
Color space                              : YUV
Chroma subsampling                       : 4:2:0
Bit depth                                : 8 bits
Scan type                                : Progressive
Bits/(Pixel*Frame)                       : 0.298
Stream size                              : 4.77 GiB (60%)
Title                                    : Padenie Chernogo Jastreba.(2001).BDRip.720p.[denis100]
Writing library                          : x264 core 140 r2377 1ca7bb9
Encoding settings                        : cabac=1 / ref=11 / deblock=1:-3:-3 / analyse=0x3:0x133 / me=umh / subme=11 / psy=1 / psy_rd=1.00:0.10 / mixed_ref=1 / me_range=32 / chroma_me=1 / trellis=2 / 8x8dct=1 / cqm=0 / deadzone=21,11 / fast_pskip=0 / chroma_qp_offset=-3 / threads=6 / lookahead_threads=1 / sliced_threads=0 / nr=0 / decimate=0 / interlaced=0 / bluray_compat=0 / constrained_intra=0 / bframes=8 / b_pyramid=2 / b_adapt=2 / b_bias=0 / direct=3 / weightb=1 / open_gop=0 / weightp=2 / keyint=240 / keyint_min=23 / scenecut=40 / intra_refresh=0 / rc=2pass / mbtree=0 / bitrate=4909 / ratetol=1.0 / qcomp=0.60 / qpmin=0 / qpmax=69 / qpstep=4 / cplxblur=20.0 / qblur=0.5 / ip_ratio=1.40 / pb_ratio=1.30 / aq=1:0.90
Language                                 : English
Default                                  : Yes
Forced                                   : No

Audio #1
ID                                       : 2
Format                                   : AC-3
Format/Info                              : Audio Coding 3
Mode extension                           : CM (complete main)
Codec ID                                 : A_AC3
Duration                                 : 2h 24mn
Bit rate mode                            : Constant
Bit rate                                 : 448 Kbps
Channel(s)                               : 6 channels
Channel positions                        : Front: L C R, Side: L R, LFE
Sampling rate                            : 48.0 KHz
Bit depth                                : 16 bits
Compression mode                         : Lossy
Stream size                              : 462 MiB (6%)
Title                                    : Дубляж, Blu-ray CEE
Language                                 : Russian
Default                                  : Yes
Forced                                   : No

Audio #2
ID                                       : 3
Format                                   : AC-3
Format/Info                              : Audio Coding 3
Mode extension                           : CM (complete main)
Codec ID                                 : A_AC3
Duration                                 : 2h 24mn
Bit rate mode                            : Constant
Bit rate                                 : 640 Kbps
Channel(s)                               : 6 channels
Channel positions                        : Front: L C R, Side: L R, LFE
Sampling rate                            : 48.0 KHz
Bit depth                                : 16 bits
Compression mode                         : Lossy
Stream size                              : 661 MiB (8%)
Title                                    : Многоголосый закадровый, Карусель
Language                                 : Russian
Default                                  : No
Forced                                   : No

Audio #3
ID                                       : 4
Format                                   : AC-3
Format/Info                              : Audio Coding 3
Mode extension                           : CM (complete main)
Codec ID                                 : A_AC3
Duration                                 : 2h 24mn
Bit rate mode                            : Constant
Bit rate                                 : 640 Kbps
Channel(s)                               : 6 channels
Channel positions                        : Front: L C R, Side: L R, LFE
Sampling rate                            : 48.0 KHz
Bit depth                                : 16 bits
Compression mode                         : Lossy
Stream size                              : 661 MiB (8%)
Title                                    : Двухголосый закадровый, П.Гланц и И.Королёва
Language                                 : Russian
Default                                  : No
Forced                                   : No

Audio #4
ID                                       : 5
Format                                   : AC-3
Format/Info                              : Audio Coding 3
Mode extension                           : CM (complete main)
Codec ID                                 : A_AC3
Duration                                 : 2h 24mn
Bit rate mode                            : Constant
Bit rate                                 : 640 Kbps
Channel(s)                               : 6 channels
Channel positions                        : Front: L C R, Side: L R, LFE
Sampling rate                            : 48.0 KHz
Bit depth                                : 16 bits
Compression mode                         : Lossy
Stream size                              : 661 MiB (8%)
Title                                    : Одноголосый закадровый, Ю.Живов
Language                                 : Russian
Default                                  : No
Forced                                   : No

Audio #5
ID                                       : 6
Format                                   : AC-3
Format/Info                              : Audio Coding 3
Mode extension                           : CM (complete main)
Codec ID                                 : A_AC3
Duration                                 : 2h 24mn
Bit rate mode                            : Constant
Bit rate                                 : 640 Kbps
Channel(s)                               : 6 channels
Channel positions                        : Front: L C R, Side: L R, LFE
Sampling rate                            : 48.0 KHz
Bit depth                                : 16 bits
Compression mode                         : Lossy
Stream size                              : 661 MiB (8%)
Title                                    : English
Language                                 : English
Default                                  : No
Forced                                   : No

Text #1
ID                                       : 7
Format                                   : UTF-8
Codec ID                                 : S_TEXT/UTF8
Codec ID/Info                            : UTF-8 Plain Text
Title                                    : Русские
Language                                 : Russian
Default                                  : No
Forced                                   : No

Text #2
ID                                       : 8
Format                                   : UTF-8
Codec ID                                 : S_TEXT/UTF8
Codec ID/Info                            : UTF-8 Plain Text
Title                                    : Русские
Language                                 : Russian
Default                                  : No
Forced                                   : No

Menu
00:00:00.000                             : en:00:00:00.000
00:12:05.224                             : en:00:12:05.224
00:24:31.011                             : en:00:24:31.011
00:36:06.664                             : en:00:36:06.664
00:50:51.882                             : en:00:50:51.882
01:02:43.926                             : en:01:02:43.926
01:14:07.276                             : en:01:14:07.276
01:26:32.687                             : en:01:26:32.687
01:37:24.255                             : en:01:37:24.255
01:52:32.871                             : en:01:52:32.871
02:05:17.009                             : en:02:05:17.009
02:16:10.537                             : en:02:16:10.537

pb.wtf



Скачать Черный ястреб через торрент http://i67.fastpic.ru/big/2014/1103/ef/1103a1da5eb0156c765670f603008bef.png Скачать фильм Черный ястреб через торрент бесплантно в хорошем качестве Описание::Сомали, 1993 год. Страна вымирает от голода, число жертв превысило триста тысяч человек. Миротворческие силы ООН пытаются ... 10 10 6
Торрент: Зарегистрирован [2014-11-03 08:59] · скачан: 169 раз
Статус: √ проверено
Размер: 7.96 GB
Как cкачать? Как скачать Черный ястреб через торрент | qTorrent

% Раздел Тема Автор DL S | L
Ultra HD (UHD: 2K, 4K, 8K) — видео сверхвысокой чёткости [ 75.58 GB ] Черный ястреб / Падение Чёрного ястреба / Black Hawk Down [2001 военный история реальные события UHD BDRemux 2160p] MVO + DVO + 3xAVO [Расширенная версия] sheker187 Скачать
1 | 0

28-11-2019 20:33  

Отключить всю рекламу на сайте

    Дорогой пользователь! Огромная просьба, поблагодарите релизера, оцените раздачу и оставьте свои комментарий, если Вы скачали Черный ястреб через торрент бесплатно! Внесите свою лепту в развитие PiratBit!
    Комментировать посты могут только пользователи прошедшие не сложную регистрацию
    Показать сообщения:    

    Черный ястреб через торрент
    Скачать бесплатно Черный ястреб
    Черный ястреб скачать торрент
    Черный ястреб смотреть онлайн
    Cкачать фильм Черный ястреб бесплатно
    Черный ястреб скачать торрент в хорошем качестве
    Черный ястреб смотреть онлайн бесплатно в хорошем качестве


    Вы не можете начинать темы
    Вы не можете отвечать на сообщения
    Вы не можете редактировать свои сообщения
    Вы не можете удалять свои сообщения
    Вы не можете голосовать в опросах
    Вы не можете прикреплять файлы к сообщениям
    Вы можете скачивать файлы