Ссылка на приватное зеркало нашего сайта всего за 1$. Внимание количество ограничено!!!

2 сезон

iTunes

1 сезон

1

iTunes

iTunes

iTunes

1 сезон

RePack

30

ИГРА 18+

pack

ВАЖНО

!!Акция!!

Alien_RageХит недели

RePack

MK11
pack

Забери бонус

RePack

jed

!!Акция!!

Alien_Rage

RePack

fifa19

RePack

Assassins Creed: Odyssey

RePack

NEED FOR SPEED™ PAYBACK

4 сезон

9 сезон

Бесстыжие 9 сезон

Все сериалы

все сериалы на PB.wtf

RePack

FAR CRY 5
  

На берегу / On the Beach (Стэнли Крамер) [1959, фантастика, драма, BDRip 720p] MVO, DVO pb.wtf

На берегу через торрент pb.wtf

Размер: 7.83 GB | Добавлен: 5 лет 11 мес. назад | Торрент скачан:8 раз
Скачать  

03-11-2014 09:05 На берегу Скачать торрент  

На берегу / On the Beach

Год выпуска: 1959
Страна: США
Жанр: фантастика, драма
Продолжительность: 02:14:32
Перевод: профессиональный многоголосый, профессиональный двухголосый
Субтитры: английские

Режиссёр: Стэнли Крамер

В ролях: Грегори Пек, Ава Гарднер, Фред Астер, Энтони Перкинс, Донна Андерсон, Джон Тейт, Харп МакГуайр, Лола Брукс, Кен Уэйн, Гай Доулмен

Описание: В 1964 году ядерная война стирает с лица земли население северного полушария. Одна американская субмарина находит временную зону безопасности в Австралии. Командир субмарины Дуайт Тауэрс, семья которого стала жертвой чудовищной войны, встречает здесь женщину, которая пробуждает в нём уже как будто навсегда умершее чувство любви. Его избранница — Мойра Довайдсон — измучена заботами и всё свободное время проводит с бутылкой бренди. Смогут ли они быть счастливы на фоне угасания последнего оазиса жизни?



Качество: BDRip 720p Сравнение с исходником
Формат: MKV
Видео кодек: H.264
Аудио кодек: AC3
Видео: 7589 Кбит/с, 1192x720, 23.976 кадра/с, 0.369 bpp
Аудио 1: русский, AC3, 192 kbps, 2 ch, 48 kHz [профессиональный многоголосый, DVD Магия]
Аудио 2: русский, AC3, 192 kbps, 2 ch, 48 kHz [профессиональный двухголосый, Film Prestige]
Аудио 3: английский, AC3, 192 kbps, 2 ch, 48 kHz [оригинал]

Имеются неименованные главы/чаптеры.

Автор рипа msltel
Оскар, 1960 год
Номинации (2):
Лучший монтаж
Лучший саундтрек для драматических/комедийных картин

Золотой глобус, 1960 год
Победитель (1):
Лучший саундтрек

Номинации (4):
Лучший фильм (драма)
Лучший фильм, пропагандирующий мировое взаимопонимание
Лучший режиссер (Стэнли Крамер)
Лучшая мужская роль второго плана (Фред Астер)

Британская академия, 1960 год
Победитель (1):
Премия объединенных наций

Номинации (1):
Лучшая иностранная актриса (Ава Гарднер)
frame I:983 Avg QP:19.21 size:101368
frame P:33998 Avg QP:20.37 size: 60495
frame B:158537 Avg QP:22.25 size: 35737

Общее
Уникальный идентификатор : 253419367968838105775274580357289472780 (0xBEA6CB804350A00681FDE09367E5F30C)
Полное имя : D:\Video\Na beregu.1959.BDRip.720p.mkv
Формат : Matroska
Версия формата : Version 4 / Version 2
Размер файла : 7,83 Гбайт
Продолжительность : 2 ч. 14 м.
Общий поток : 8331 Кбит/сек
Дата кодирования : UTC 2014-11-03 02:52:42
Программа кодирования : mkvmerge v7.3.0 ('Nouages') 64bit built on Oct 22 2014 18:53:34
Библиотека кодирования : libebml v1.3.0 + libmatroska v1.4.1
DURATION : 02:11:10.945000000
NUMBER_OF_FRAMES : 1357
NUMBER_OF_BYTES : 47077
_STATISTICS_WRITING_APP : mkvmerge v7.3.0 ('Nouages') 64bit built on Oct 22 2014 18:53:34
_STATISTICS_WRITING_DATE_UTC : 2014-11-03 02:52:42
_STATISTICS_TAGS : BPS DURATION NUMBER_OF_FRAMES NUMBER_OF_BYTES

Видео
Идентификатор : 1
Формат : AVC
Формат/Информация : Advanced Video Codec
Профиль формата : High@L4.1
Параметр CABAC формата : Да
Параметр ReFrames формата : 9 кадров
Идентификатор кодека : V_MPEG4/ISO/AVC
Продолжительность : 2 ч. 14 м.
Битрейт : 7589 Кбит/сек
Ширина : 1192 пикселя
Высота : 720 пикселей
Соотношение сторон : 1,656
Режим частоты кадров : Постоянный
Частота кадров : 23,976 кадра/сек
Цветовое пространство : YUV
Субдискретизация насыщенности : 4:2:0
Битовая глубина : 8 бит
Тип развёртки : Прогрессивная
Бит/(Пиксели*Кадры) : 0.369
Размер потока : 7,13 Гбайт (91%)
Заголовок : BDRip -- STarankov
Библиотека кодирования : x264 core 142 r2431 ac76440
Настройки программы : cabac=1 / ref=9 / deblock=1:-1:-1 / analyse=0x3:0x113 / me=umh / subme=10 / psy=1 / psy_rd=1.00:0.15 / mixed_ref=1 / me_range=32 / chroma_me=1 / trellis=2 / 8x8dct=1 / cqm=0 / deadzone=21,11 / fast_pskip=1 / chroma_qp_offset=-3 / threads=6 / lookahead_threads=1 / sliced_threads=0 / nr=0 / decimate=1 / interlaced=0 / bluray_compat=0 / constrained_intra=0 / bframes=8 / b_pyramid=2 / b_adapt=2 / b_bias=0 / direct=3 / weightb=1 / open_gop=0 / weightp=2 / keyint=230 / keyint_min=23 / scenecut=40 / intra_refresh=0 / rc_lookahead=40 / rc=crf / mbtree=0 / crf=19.0 / qcomp=0.60 / qpmin=0 / qpmax=69 / qpstep=4 / vbv_maxrate=50000 / vbv_bufsize=62500 / crf_max=0.0 / nal_hrd=none / filler=0 / ip_ratio=1.40 / pb_ratio=1.30 / aq=1:1.00
Язык : English
Default : Да
Forced : Нет
DURATION : 02:14:31.314000000
NUMBER_OF_FRAMES : 193518
NUMBER_OF_BYTES : 7821985877
_STATISTICS_WRITING_APP : mkvmerge v7.3.0 ('Nouages') 64bit built on Oct 22 2014 18:53:34
_STATISTICS_WRITING_DATE_UTC : 2014-11-03 02:52:42
_STATISTICS_TAGS : BPS DURATION NUMBER_OF_FRAMES NUMBER_OF_BYTES

Аудио #1
Идентификатор : 2
Формат : AC-3
Формат/Информация : Audio Coding 3
Расширение режима : CM (complete main)
Параметр Endianness формата : Big
Идентификатор кодека : A_AC3
Продолжительность : 2 ч. 14 м.
Вид битрейта : Постоянный
Битрейт : 192 Кбит/сек
Каналы : 2 канала
Расположение каналов : Front: L R
Частота : 48,0 КГц
Битовая глубина : 16 бит
Метод сжатия : С потерями
Размер потока : 185 Мбайт (2%)
Заголовок : MVO (DVD Магия)
Язык : Russian
Default : Да
Forced : Нет

Аудио #2
Идентификатор : 3
Формат : AC-3
Формат/Информация : Audio Coding 3
Расширение режима : CM (complete main)
Параметр Endianness формата : Big
Идентификатор кодека : A_AC3
Продолжительность : 2 ч. 14 м.
Вид битрейта : Постоянный
Битрейт : 192 Кбит/сек
Каналы : 2 канала
Расположение каналов : Front: L R
Частота : 48,0 КГц
Битовая глубина : 16 бит
Метод сжатия : С потерями
Размер потока : 185 Мбайт (2%)
Заголовок : DVO (Film Prestige)
Язык : Russian
Default : Нет
Forced : Нет

Аудио #3
Идентификатор : 4
Формат : AC-3
Формат/Информация : Audio Coding 3
Расширение режима : CM (complete main)
Параметр Endianness формата : Big
Идентификатор кодека : A_AC3
Продолжительность : 2 ч. 14 м.
Вид битрейта : Постоянный
Битрейт : 192 Кбит/сек
Каналы : 2 канала
Расположение каналов : Front: L R
Частота : 48,0 КГц
Битовая глубина : 16 бит
Метод сжатия : С потерями
Размер потока : 185 Мбайт (2%)
Заголовок : Original
Язык : English
Default : Нет
Forced : Нет

Текст
Идентификатор : 5
Формат : UTF-8
Идентификатор кодека : S_TEXT/UTF8
Идентификатор кодека/Информация : UTF-8 Plain Text
Заголовок : английский
Язык : English
Default : Нет
Forced : Нет

Меню
00:00:00.000 : :Chapter 01
00:13:42.404 : :Chapter 02
00:36:53.294 : :Chapter 03
00:56:27.634 : :Chapter 04
01:14:31.800 : :Chapter 05
01:29:42.794 : :Chapter 06
01:38:45.169 : :Chapter 07
01:53:01.316 : :Chapter 08
pb.wtf



Скачать На берегу через торрент http://i66.fastpic.ru/big/2014/1103/f5/140e47bd8392cd8a7da1fd2fccee71f5.jpg Скачать фильм На берегу через торрент бесплантно в хорошем качестве Описание: В 1964 году ядерная война стирает с лица земли население северного полушария. Одна американская субмарина находит временную зону ... 7.5 10 2
Торрент: Зарегистрирован [2014-11-03 09:05] · скачан: 8 раз
Статус: √ проверено
Размер: 7.83 GB
Как cкачать? Как скачать На берегу через торрент | qTorrent

% Раздел Тема Автор DL S | L
Фильмы [HD 720p, 1080p] (Хороший звук DUB, MVO) [ 17.05 GB ] На берегу / On the Beach [1959 BDRip 1080p] MVO DVO msltel Скачать
1 | 0

28-11-2019 20:33  

Отключить всю рекламу на сайте

    Дорогой пользователь! Огромная просьба, поблагодарите релизера, оцените раздачу и оставьте свои комментарий, если Вы скачали На берегу через торрент бесплатно! Внесите свою лепту в развитие PiratBit!
    Комментировать посты могут только пользователи прошедшие не сложную регистрацию
    Показать сообщения:    

    На берегу через торрент
    Скачать бесплатно На берегу
    На берегу скачать торрент
    На берегу смотреть онлайн
    Cкачать фильм На берегу бесплатно
    На берегу скачать торрент в хорошем качестве
    На берегу смотреть онлайн бесплатно в хорошем качестве


    Вы не можете начинать темы
    Вы не можете отвечать на сообщения
    Вы не можете редактировать свои сообщения
    Вы не можете удалять свои сообщения
    Вы не можете голосовать в опросах
    Вы не можете прикреплять файлы к сообщениям
    Вы можете скачивать файлы