Присоединяйтесь к нам в Telegram!, здесь всегда актуальный адрес сайта, оперативная поддержка и многое другое!!

>

5.9

iTunes

7.4

iTunes

9.4

1 сезон

1

7.4

2 сезон

7.2

iTunes

7.3

1 сезон

13

6.1

iTunes

8.3

GOG

30

ULTIMATE

pack

9.9

Лицензия

ВАЖНО

ИГРА 18+

pack

7.3

RePack

MK11

7.7

RePack

jed

7.8

RePack

fifa19

8.5

RePack

RDR2

RePack

NEED FOR SPEED™ PAYBACK

5 сезон

9 сезон

Бесстыжие 9 сезон

Все сериалы

все сериалы на PB.wtf

RePack

FAR CRY 5

Anonymous, доброй ночи, мы катастрофически не успеваем собрать деньги на оплату серверов, помогите нам пожалуйста 5,10,15р., для нас важна любая помощь . В качестве благодарности мы отключим Вам всю рекламу на сайте (укажите свой ник в строку Ваше имя)!

×
  
Magnet ссылка

Секрет - The Best. Cборник лучших видеоклипов 1983-1996 [2011 г., Rock, Bit, SATRip] pb.wtf

Секрет - The Best. Cборник лучших видеоклипов 1983-1996 через торрент pb.wtf

Размер: 4.04 GB | Добавлен: 7 лет назад | Торрент скачан:17 раз
Смотреть онлайн Секрет - The Best. Cборник лучших видеоклипов 1983-1996 | Скачать    Ребята, помогите собрать деньги на оплату серверов!!!

03-11-2014 11:43 Секрет - The Best. Cборник лучших видеоклипов 1983-1996 Скачать торрент  

Секрет - The Best. Cборник лучших видеоклипов 1983-1996Год выпуска: 2011
Страна: Россия
Жанр: Rock, Bit
Продолжительность: 00:13:15 + 01:19:19 + 00:45:18
Перевод: Оригинал

В ролях: Максим Леонидов, Николай Фоменко, Андрей Заблудовский и Алексей Мурашов.

Описание: Видеозаписи группы "Секрет" с 1983 по 1996 год и концерт бит-квартета СЕКРЕТ "Ленинградское время".
Список клипов:
01. Она не понимает (1983) 02:17
02. Кончайте, папа (1990) 04:07
03. Шаг за шагом (1990) 03:54
04. Давай заводи (1995) 03:46
05. Возьми меня (1995) 03:02
06. Ночь (1993) 04:06
07. Не переживай (1994) 03:58
08. Не говори мне "прощай" (1993) 05:14
09. Ничего не бойся (1996) 04:56
10. Беспечный ездок (1988) 04:21
11. Москва-река (1997) 04:30

1."Мой приятель беспечный ездок"
2. "Ленинградское время"
3."Прости, ночь, прощай"

"Ленинградское время"
1. Домой
2. Ничего не исчезает
3. Моя любовь на пятом этаже
4. Привет
5. Твой папа был прав
6. Блюз бродячих собак
7. Арина-балерина
8. Ничего не бойся
9. В жарких странах
10. Я люблю буги-вуги
11. Ленинградское время
12. От Питера до Москвы
13. Беспечный ездок
14. Алиса
15. Именины у Кристины
16. Сара Барабу
17. Она не понимает
18. Твист
19. Мажорный рок-н-ролл
20. Пусть будет так всегда
Качество: SATRip
Формат: AVI
Видео кодек: XviD
Аудио кодек: MP3
Видео: Xvid 692x572, 25fps, 1202kbps
Аудио: MP3, 48000Hz, stereo, 128kbps





General
Complete name : C:\Секрет\Sekret\Sekret_-_Leningradskoye_vremya.avi
Format : AVI
Format/Info : Audio Video Interleave
File size : 46.8 MiB
Duration : 4mn 53s
Overall bit rate : 1 340 Kbps
Movie name : Секрет - Ленинградское время / Секрет. Клипы "Мой приятель беспечный ездок", "Час пик", "Прости, ночь, прощай".
Director : chizhik / chizhik
Genre : Russian rock / Russian rock
Original source form/Name : Music Clip / Music Clip

Video
ID : 0
Format : MPEG-4 Visual
Format profile : Advanced Simple@L5
Format settings, BVOP : 2
Format settings, QPel : No
Format settings, GMC : No warppoints
Format settings, Matrix : Default (H.263)
Muxing mode : Packed bitstream
Codec ID : XVID
Codec ID/Hint : XviD
Duration : 4mn 53s
Bit rate : 1 202 Kbps
Width : 692 pixels
Height : 572 pixels
Display aspect ratio : 1.210
Frame rate : 25.000 fps
Color space : YUV
Chroma subsampling : 4:2:0
Bit depth : 8 bits
Scan type : Progressive
Compression mode : Lossy
Bits/(Pixel*Frame) : 0.122
Stream size : 42.0 MiB (90%)
Writing library : XviD 1.2.1 (UTC 2008-12-04)

Audio
ID : 1
Format : MPEG Audio
Format version : Version 1
Format profile : Layer 3
Mode : Joint stereo
Mode extension : MS Stereo
Codec ID : 55
Codec ID/Hint : MP3
Duration : 4mn 53s
Bit rate mode : Constant
Bit rate : 128 Kbps
Channel(s) : 2 channels
Sampling rate : 48.0 KHz
Compression mode : Lossy
Stream size : 4.47 MiB (10%)
Alignment : Split accross interleaves
Interleave, duration : 40 ms (1.00 video frame)
Interleave, preload duration : 500 ms

pb.wtf



Скачать Секрет - The Best. Cборник лучших видеоклипов 1983-1996 через торрент https://pic.kartinco.top/img/2014-11/03/w8zg5147tuda019tr19j2qavd.jpg Скачать, смотреть онлайн Секрет - The Best. Cборник лучших видеоклипов 1983-1996 [2011 г., Rock, Bit, SATRip] бесплантно в хорошем качестве Описание: Видеозаписи группы "Секрет" с 1983 по 1996 год и концерт бит-квартета СЕКРЕТ "Ленинградское время".Список клипов: Она не ... 10 10 5
Info! Золотая раздача, скачанное не засчитывается.
Торрент: Зарегистрирован [2014-11-03 11:43] · скачан: 17 раз
Статус: √ проверено
Размер: 4.04 GB
Как cкачать? Как скачать Секрет - The Best. Cборник лучших видеоклипов 1983-1996 через торрент | UTorrent

28-11-2019 20:33  

Отключить всю рекламу на сайте

    Дорогой пользователь! Огромная просьба, поблагодарите релизера, оцените раздачу и оставьте свои комментарий, если Вы скачали Секрет - The Best. Cборник лучших видеоклипов 1983-1996 через торрент бесплатно!
    Комментировать посты могут только пользователи прошедшие не сложную регистрацию
    Показать сообщения:    

    Секрет - The Best. Cборник лучших видеоклипов 1983-1996 через торрент
    Скачать бесплатно Секрет - The Best. Cборник лучших видеоклипов 1983-1996
    Секрет - The Best. Cборник лучших видеоклипов 1983-1996 скачать торрент
    Секрет - The Best. Cборник лучших видеоклипов 1983-1996 смотреть онлайн
    Cкачать фильм Секрет - The Best. Cборник лучших видеоклипов 1983-1996 бесплатно
    Секрет - The Best. Cборник лучших видеоклипов 1983-1996 скачать торрент в хорошем качестве
    Секрет - The Best. Cборник лучших видеоклипов 1983-1996 смотреть онлайн бесплатно в хорошем качестве


    Вы не можете начинать темы
    Вы не можете отвечать на сообщения
    Вы не можете редактировать свои сообщения
    Вы не можете удалять свои сообщения
    Вы не можете голосовать в опросах
    Вы не можете прикреплять файлы к сообщениям
    Вы можете скачивать файлы