Ссылка на приватное зеркало всего за 1$. Внимание количество ограничено!!!

iTunes

iTunes

iTunes

1

iTunes

iTunes

iTunes

iTunes

iTunes

30
pack

$ от Little Big

ВАЖНО

!!Акция!!

Alien_RageХит недели

RePack

Resident Evil 21

ИГРА 18+

pack

RePack

jed

!!Акция!!

Alien_Rage

RePack

fifa19

RePack

Assassins Creed: Odyssey

RePack

NEED FOR SPEED™ PAYBACK

4 сезон

9 сезон

Бесстыжие 9 сезон

Все сериалы

все сериалы на PB.wtf

RePack

FAR CRY 5
  

Лагерь «X-Ray» / Camp X-Ray (Питер Сэттлер ) [2014, драма, WEB-DL 720p, Профессиональный (двухголосый) pb.wtf

Лагерь «X-Ray» через торрент pb.wtf

Размер: 3.88 GB | Добавлен: 5 лет 8 мес. назад | Торрент скачан:505 раз
Скачать  

03-11-2014 12:36 Лагерь «X-Ray» Скачать торрент  

Лагерь «X-Ray» / Camp X-Ray
«Connection takes courage»

Год выпуска: 2014
Страна: США
Жанр:драма
Продолжительность:01:57:11
Перевод:Профессиональный (двухголосый)
Субтитры: русские, английские,
Режиссер:Питер Сэттлер

  • В ролях:

    Кристен Стюарт (Pvt. Amy Cole), Пейман Моаади (Ali Amir), Кори Майкл Смит (Pvt. Bergen), Джон Кэрролл Линч (Col. James Drummond), Тара Холт (Pvt. Mary Winters), Лэйн Гаррисон (Cpl. «Randy» Ransdell), Джулия Даффи (Betty Cole), Юсуф Азами (Ehan), Джозеф Джулиан Сория (Pvt. Rico Cruz), Марко Хэнлиэн (Mahmoud), Сер’Дариус Блэйн (Pvt. Raymond Jackson), Nawal Bengholam (Newscaster)

  • Описание:
    Девушка по имени Коул вступает в ряды вооруженных сил США и по долгу службы попадает в, пожалуй, самое жуткое место в мире - тюрьму для военнопленных Гуантанамо. Героиня знакомится там с заключенным Али, который сидит к тому времени уже восемь лет, и решается вызволить его оттуда.

  • Мировая премьера:17 января 2014

    Качество: WEB-DL 720p
    Формат:MKV
    Видео кодек: AVC
    Аудио кодек:AC3
    Видео: AVC, 1280x528 (2.40:1), 3877 kbps, 23,976 fps, 0,239 bpp
    Аудио №1: русский / AC3 / 2.0 / 48 kHz / 384 kbps / 16 bit ||
    Аудио №2: английский / AC3 / 5.1 / 48 kHz / 384 kbps / 16 bit
    Навигация по главам: есть


    Код:

    General
    Unique ID                                : 197503553569889867606753581809601260450 (0x9495CD00DB2D376A85B1289EFE12ABA2)
    Complete name                            : D:\Торенты\Camp.X-Ray.2014.WEB.DL.720p.CINEMANIA.mkv
    Format                                   : Matroska
    Format version                           : Version 4 / Version 2
    File size                                : 3.88 GiB
    Duration                                 : 1h 57mn
    Overall bit rate                         : 4 740 Kbps
    Movie name                               : Release Group CINEMANIA
    Encoded date                             : UTC 2014-11-03 09:43:11
    Writing application                      : mkvmerge v7.3.0 ('Nouages') 64bit built on Oct 22 2014 18:53:34
    Writing library                          : libebml v1.3.0 + libmatroska v1.4.1

    Video
    ID                                       : 1
    Format                                   : AVC
    Format/Info                              : Advanced Video Codec
    Format profile                           : Main@L3.1
    Format settings, CABAC                   : No
    Format settings, ReFrames                : 2 frames
    Codec ID                                 : V_MPEG4/ISO/AVC
    Duration                                 : 1h 57mn
    Bit rate                                 : 3 878 Kbps
    Width                                    : 1 280 pixels
    Height                                   : 528 pixels
    Display aspect ratio                     : 2.40:1
    Frame rate                               : 23.976 fps
    Color space                              : YUV
    Chroma subsampling                       : 4:2:0
    Bit depth                                : 8 bits
    Scan type                                : Progressive
    Bits/(Pixel*Frame)                       : 0.239
    Stream size                              : 3.17 GiB (82%)
    Title                                    : Release Group CINEMANIA
    Language                                 : English
    Default                                  : Yes
    Forced                                   : No
    Color primaries                          : BT.709-5, BT.1361, IEC 61966-2-4, SMPTE RP177
    Transfer characteristics                 : BT.709-5, BT.1361
    Matrix coefficients                      : BT.709-5, BT.1361, IEC 61966-2-4 709, SMPTE RP177

    Audio #1
    ID                                       : 2
    Format                                   : AC-3
    Format/Info                              : Audio Coding 3
    Mode extension                           : CM (complete main)
    Codec ID                                 : A_AC3
    Duration                                 : 1h 57mn
    Bit rate mode                            : Constant
    Bit rate                                 : 384 Kbps
    Channel(s)                               : 2 channels
    Channel positions                        : Front: L R
    Sampling rate                            : 48.0 KHz
    Bit depth                                : 16 bits
    Compression mode                         : Lossy
    Stream size                              : 322 MiB (8%)
    Title                                    : Пиратская студия
    Language                                 : Russian
    Default                                  : Yes
    Forced                                   : Yes

    Audio #2
    ID                                       : 3
    Format                                   : AC-3
    Format/Info                              : Audio Coding 3
    Mode extension                           : CM (complete main)
    Codec ID                                 : A_AC3
    Duration                                 : 1h 57mn
    Bit rate mode                            : Constant
    Bit rate                                 : 384 Kbps
    Channel(s)                               : 6 channels
    Channel positions                        : Front: L C R, Side: L R, LFE
    Sampling rate                            : 48.0 KHz
    Bit depth                                : 16 bits
    Compression mode                         : Lossy
    Stream size                              : 322 MiB (8%)
    Language                                 : English
    Default                                  : No
    Forced                                   : No

    Text #1
    ID                                       : 4
    Format                                   : UTF-8
    Codec ID                                 : S_TEXT/UTF8
    Codec ID/Info                            : UTF-8 Plain Text
    Language                                 : Russian
    Default                                  : Yes
    Forced                                   : Yes

    Text #2
    ID                                       : 5
    Format                                   : UTF-8
    Codec ID                                 : S_TEXT/UTF8
    Codec ID/Info                            : UTF-8 Plain Text
    Language                                 : English
    Default                                  : No
    Forced                                   : No

    Menu
    00:00:00.000                             : en:1
    00:11:33.000                             : en:2
    00:23:37.000                             : en:3
    00:34:22.000                             : en:4
    00:42:57.000                             : en:5
    00:50:35.000                             : en:6
    00:59:50.000                             : en:7
    01:10:46.000                             : en:8
    01:20:51.000                             : en:9
    01:31:23.000                             : en:10
    01:46:50.000                             : en:11
    01:51:19.000                             : en:12

    Скриншоты:
    скриншот   скриншот   скриншот  

    Срочно! Нужна помощь!


    © Оформление by Ravenpb.wtf



  • Скачать Лагерь «X-Ray» через торрент http://i64.fastpic.ru/big/2014/1103/db/fd1683a0cf5004781a7e4c8f1443dcdb.jpg Скачать фильм Лагерь «X-Ray» через торрент бесплантно в хорошем качестве Описание:Девушка по имени Коул вступает в ряды вооруженных сил США и по долгу службы попадает в, пожалуй, самое жуткое место в мире - ... 9.5 10 12
    Info! Серебряная раздача, засчитывается только 50% скачанного.
    Торрент: Зарегистрирован [2014-11-03 12:37] · скачан: 505 раз
    Статус: √ проверено
    Размер: 3.88 GB
    Как cкачать? Как скачать Лагерь «X-Ray» через торрент | qTorrent

    % Раздел Тема Автор DL S | L
    T Фильмы 2014 [DVDrip, WEB-DLRip, HDrip] [ 1.46 GB ] Лагерь «X-Ray» / Camp X-Ray [2014 WEB-DLRip] DVO [Пиратская студия] lug30 Скачать
    1 | 0

    28-11-2019 20:33  

    Отключить всю рекламу на сайте

      Дорогой пользователь! Огромная просьба, поблагодарите релизера, оцените раздачу и оставьте свои комментарий, если Вы скачали Лагерь «X-Ray» через торрент бесплатно! Внесите свою лепту в развитие PiratBit!
      Комментировать посты могут только пользователи прошедшие не сложную регистрацию
      Показать сообщения:    

      Лагерь «X-Ray» через торрент
      Скачать бесплатно Лагерь «X-Ray»
      Лагерь «X-Ray» скачать торрент
      Лагерь «X-Ray» смотреть онлайн
      Cкачать фильм Лагерь «X-Ray» бесплатно
      Лагерь «X-Ray» скачать торрент в хорошем качестве
      Лагерь «X-Ray» смотреть онлайн бесплатно в хорошем качестве


      Вы не можете начинать темы
      Вы не можете отвечать на сообщения
      Вы не можете редактировать свои сообщения
      Вы не можете удалять свои сообщения
      Вы не можете голосовать в опросах
      Вы не можете прикреплять файлы к сообщениям
      Вы можете скачивать файлы