Death Stranding+DLC+АВТОАКТИВАЦИЯ

iTunes

iTunes

iTunes

1

iTunes

iTunes

iTunes

iTunes

iTunes

30
pack

$ от Little Big

ВАЖНО

!!Акция!!

Alien_RageХит недели

RePack

Resident Evil 21

ИГРА 18+

pack

RePack

jed

!!Акция!!

Alien_Rage

RePack

fifa19

RePack

Assassins Creed: Odyssey

RePack

NEED FOR SPEED™ PAYBACK

4 сезон

9 сезон

Бесстыжие 9 сезон

Все сериалы

все сериалы на PB.wtf

RePack

FAR CRY 5
  

Пришельцы 2: Коридоры времени / Les couloirs du temps: Les visiteurs II (Жан-Мари Пуаре) [1998 г., фантастика, фэнтези, комедия, семейный, HDTV 1080i, MVO, DVO, AVO] pb.wtf

Пришельцы 2: Коридоры времени через торрент pb.wtf

Размер: 7.42 GB | Добавлен: 5 лет 8 мес. назад | Торрент скачан:240 раз
Скачать  

04-11-2014 07:19 Пришельцы 2: Коридоры времени Скачать торрент  

Пришельцы 2: Коридоры времени / Les couloirs du temps: Les visiteurs II
Год выпуска: 1998
Страна: Франция
Жанр: фантастика, фэнтези, комедия, семейный
Продолжительность: 01:57:30
Перевод: Профессиональный многоголосый, Профессиональный двухголосый, Авторский одноголосый
Субтитры: Русские, английские, французские

Режиссер: Жан-Мари Пуаре
Продюссер: Жан-Мари Пуаре, Ален Терзян, Кристиан Клавье
Сценарий: Кристиан Клавье, Жан-Мари Пуаре
Премьера в мире: 11 февраля 1998

IMDB 5.90 (5866)


В ролях: Кристиан Клавье, Жан Рено, Мюриэль Робен, Мари-Анн Шазель, Жан-Люк Карон, Патрик Бюржель, Эрик Аверлан, Армель, Пьер Виаль, Франк-Оливье Бонне

Описание: Если Вы выпили волшебного снадобья и попали в средневековье не надейтесь на свои сотовый телефон и службу спасения: еще никому не удавалось вырваться из лап святой инквизиции. И вы не сможете вернуться обратно, ведь в вашем времени действует ваш двойник-наивный средневековый пройдоха Жакуй.Ваша единственная надежда-доблестный граф Де Монмирай, который не может жениться, так как Жакуй похитил у его будущего шурина святые реликвии и спрятал их в нашем времени.Теперь граф с помощью чар великого волшебника Эусебиуса должен восстановить ход времени, отправить предков в прошлое, а потомков в будущее, иначе коридоры времени не закроются, и произойдет вселенская катастрофа.

Качество: HDTV 1080i
Формат: MKV
Видео кодек: AVC
Аудио кодек: AC3
Видео: MPEG-4 AVC, 6922 Kбит/с, 1920x1080, 23.976 кадр/с
Аудио#1: Русский (AC3, 6 ch, 448 Кбит/с, 48.0 KHz) - Профессиональный многоголосый (Амальгама)
Аудио#2: Русский (AC3, 6 ch, 448 Кбит/с, 48.0 KHz) - Авторский одноголосый (Сербин)
Аудио#3: Русский (AC3, 6 ch, 448 Кбит/с, 48.0 KHz) - Авторский одноголосый (Володарский)
Аудио#4: Русский (AC3, 1 ch, 128 Кбит/с, 48.0 KHz) - Профессиональный многоголосый (НТВ)
Аудио #5: Русский (AC3, 1 ch, 128 Кбит/с, 48.0 KHz) - Профессиональный многоголосый (ТНТ)
Аудио #6: Украинский (AC3, 1 ch, 128 Кбит/с, 48.0 KHz) - Профессиональный двухголосый (2+2)
Аудио #7: Украинский (AC3, 1 ch, 128 Кбит/с, 48.0 KHz) - Профессиональный многоголосый (CTV)
Аудио #8: Французский (AC3, 6 ch, 448 Кбит/с, 48.0 KHz) - Оригинал
General
Unique ID : 228525866386369830623075174984445220870 (0xABEC7B1D2EF8C0E4A3AE08858BF65806)
Complete name : /home/sb1855/files/Les.Couloirs.du.temps.Les.Visiteurs.2.1998.HDTV.1080i.Open.Matte-rutracker.xfiles.mkv
Format : Matroska
Format version : Version 4 / Version 2
File size : 7.42 GiB
Duration : 1h 52mn
Overall bit rate : 9 413 Kbps
Movie name : Les.Couloirs.du.temps.Les.Visiteurs.2.1998.HDTV.1080i.Open.Matte-rutracker.xfiles
Encoded date : UTC 2014-11-02 20:58:47
Writing application : mkvmerge v7.2.0 ('On Every Street') 64bit built on Sep 13 2014 15:52:10
Writing library : libebml v1.3.0 + libmatroska v1.4.1
_STATISTICS_WRITING_APP : mkvmerge v7.2.0 ('On Every Street') 64bit built on Sep 13 2014 15:52:10
_STATISTICS_WRITING_DATE_UTC : 2014-11-02 20:58:47
_STATISTICS_TAGS : BPS DURATION NUMBER_OF_FRAMES NUMBER_OF_BYTES
DURATION : 01:48:55.098000000
NUMBER_OF_FRAMES : 1463
NUMBER_OF_BYTES : 59870

Video
ID : 1
Format : AVC
Format/Info : Advanced Video Codec
Format profile : High@L4.0
Format settings, CABAC : Yes
Format settings, ReFrames : 4 frames
Format settings, GOP : M=8, N=32
Codec ID : V_MPEG4/ISO/AVC
Duration : 1h 52mn
Bit rate : 6 922 Kbps
Width : 1 920 pixels
Height : 1 080 pixels
Display aspect ratio : 16:9
Frame rate : 25.000 fps
Color space : YUV
Chroma subsampling : 4:2:0
Bit depth : 8 bits
Scan type : MBAFF
Bits/(Pixel*Frame) : 0.134
Stream size : 5.45 GiB (74%)
Language : French
Default : Yes
Forced : No
Color primaries : BT.709-5, BT.1361, IEC 61966-2-4, SMPTE RP177
Transfer characteristics : BT.709-5, BT.1361
Matrix coefficients : BT.709-5, BT.1361, IEC 61966-2-4 709, SMPTE RP177

Audio #1
ID : 2
Format : AC-3
Format/Info : Audio Coding 3
Mode extension : CM (complete main)
Format settings, Endianness : Big
Codec ID : A_AC3
Duration : 1h 52mn
Bit rate mode : Constant
Bit rate : 448 Kbps
Channel(s) : 6 channels
Channel positions : Front: L C R, Side: L R, LFE
Sampling rate : 48.0 KHz
Bit depth : 16 bits
Compression mode : Lossy
Stream size : 361 MiB (5%)
Title : ???????????? ?????????? | ????????? / ???? / DVD-Group
Language : Russian
Default : Yes
Forced : No

Audio #2
ID : 3
Format : AC-3
Format/Info : Audio Coding 3
Mode extension : CM (complete main)
Format settings, Endianness : Big
Codec ID : A_AC3
Duration : 1h 52mn
Bit rate mode : Constant
Bit rate : 448 Kbps
Channel(s) : 6 channels
Channel positions : Front: L C R, Side: L R, LFE
Sampling rate : 48.0 KHz
Bit depth : 16 bits
Compression mode : Lossy
Stream size : 361 MiB (5%)
Title : ??????????? ?????????? | ???? ?????? / ???????????
Language : Russian
Default : No
Forced : No

Audio #3
ID : 4
Format : AC-3
Format/Info : Audio Coding 3
Mode extension : CM (complete main)
Format settings, Endianness : Big
Codec ID : A_AC3
Duration : 1h 52mn
Bit rate mode : Constant
Bit rate : 448 Kbps
Channel(s) : 6 channels
Channel positions : Front: L C R, Side: L R, LFE
Sampling rate : 48.0 KHz
Bit depth : 16 bits
Compression mode : Lossy
Stream size : 361 MiB (5%)
Title : ??????????? ?????????? | ?????? ???????????
Language : Russian
Default : No
Forced : No

Audio #4
ID : 5
Format : AC-3
Format/Info : Audio Coding 3
Mode extension : CM (complete main)
Format settings, Endianness : Big
Codec ID : A_AC3
Duration : 1h 52mn
Bit rate mode : Constant
Bit rate : 128 Kbps
Channel(s) : 1 channel
Channel positions : Front: C
Sampling rate : 48.0 KHz
Bit depth : 16 bits
Compression mode : Lossy
Stream size : 103 MiB (1%)
Title : ???????????? ?????????? | ???
Language : Russian
Default : No
Forced : No

Audio #5
ID : 6
Format : AC-3
Format/Info : Audio Coding 3
Mode extension : CM (complete main)
Format settings, Endianness : Big
Codec ID : A_AC3
Duration : 1h 52mn
Bit rate mode : Constant
Bit rate : 128 Kbps
Channel(s) : 1 channel
Channel positions : Front: C
Sampling rate : 48.0 KHz
Bit depth : 16 bits
Compression mode : Lossy
Stream size : 103 MiB (1%)
Title : ??????????? ?????????? | ???
Language : Russian
Default : No
Forced : No

Audio #6
ID : 7
Format : AC-3
Format/Info : Audio Coding 3
Mode extension : CM (complete main)
Format settings, Endianness : Big
Codec ID : A_AC3
Duration : 1h 52mn
Bit rate mode : Constant
Bit rate : 128 Kbps
Channel(s) : 1 channel
Channel positions : Front: C
Sampling rate : 48.0 KHz
Bit depth : 16 bits
Compression mode : Lossy
Stream size : 103 MiB (1%)
Title : ?????????? ?????????? | 2+2
Language : Ukrainian
Default : No
Forced : No

Audio #7
ID : 8
Format : AC-3
Format/Info : Audio Coding 3
Mode extension : CM (complete main)
Format settings, Endianness : Big
Codec ID : A_AC3
Duration : 1h 52mn
Bit rate mode : Constant
Bit rate : 128 Kbps
Channel(s) : 1 channel
Channel positions : Front: C
Sampling rate : 48.0 KHz
Bit depth : 16 bits
Compression mode : Lossy
Stream size : 103 MiB (1%)
Title : ????????????? ?????????? | ICTV
Language : Ukrainian
Default : No
Forced : No

Audio #8
ID : 9
Format : AC-3
Format/Info : Audio Coding 3
Mode extension : CM (complete main)
Format settings, Endianness : Big
Codec ID : A_AC3
Duration : 1h 52mn
Bit rate mode : Constant
Bit rate : 448 Kbps
Channel(s) : 6 channels
Channel positions : Front: L C R, Side: L R, LFE
Sampling rate : 48.0 KHz
Bit depth : 16 bits
Compression mode : Lossy
Stream size : 361 MiB (5%)
Language : French
Default : No
Forced : No

Text #1
ID : 10
Format : UTF-8
Codec ID : S_TEXT/UTF8
Codec ID/Info : UTF-8 Plain Text
Language : Russian
Default : No
Forced : No

Text #2
ID : 11
Format : UTF-8
Codec ID : S_TEXT/UTF8
Codec ID/Info : UTF-8 Plain Text
Language : French
Default : No
Forced : No

Text #3
ID : 12
Format : UTF-8
Codec ID : S_TEXT/UTF8
Codec ID/Info : UTF-8 Plain Text
Language : English
Default : No
Forced : No

pb.wtf



Скачать Пришельцы 2: Коридоры времени через торрент http://pic.kartinco.top/img/2014-11/04/be7ovyzc6gm2d4pag1l8bxwkt.jpg Скачать фильм Пришельцы 2: Коридоры времени через торрент бесплантно в хорошем качестве Описание: Если Вы выпили волшебного снадобья и попали в средневековье не надейтесь на свои сотовый телефон и службу спасения: еще никому не ... 10 10 12
Info! Золотая раздача, скачанное не засчитывается.
Торрент: Зарегистрирован [2014-11-04 07:19] · скачан: 240 раз
Статус: √ проверено
Размер: 7.42 GB
Как cкачать? Как скачать Пришельцы 2: Коридоры времени через торрент | qTorrent

% Раздел Тема Автор DL S | L
Фильмы [HD 720p, 1080p] (Хороший звук DUB, MVO) [ 10.09 GB ] Пришельцы 2: Коридоры времени / Les couloirs du temps: Les visiteurs II [1998 BDRip-HEVC 1080p ] AVO+MVO bober100 Скачать
1 | 0
Фильмы [HD 720p, 1080p] (Хороший звук DUB, MVO) [ 11.55 GB ] Пришельцы 2: Коридоры времени / Les couloirs du temps: Les visiteurs II [1998 BDRip 1080p от еnvy / NNNB] MVO DVO AVO еnvy Скачать
6 | 0
Фильмы [HD 720p, 1080p] (Хороший звук DUB, MVO) [ 19.32 GB ] Пришельцы 2: Коридоры времени / Les couloirs du temps: Les visiteurs II [1998 BDRip 1080p 3x MVO + 2x AVO + UKR [DVO + MVO] White Smoke Скачать
1 | 0

28-11-2019 20:33  

Отключить всю рекламу на сайте

04-11-2014 08:27 Пришельцы 2: Коридоры времени Скачать торрент  

Отличная комедия, спасибо за релиз!pb.wtf



04-11-2014 09:43 Пришельцы 2: Коридоры времени Скачать торрент  

Вот бы и первую часть в таком качестве! Спасибоpb.wtf



04-11-2014 13:23 Пришельцы 2: Коридоры времени Скачать торрент  

Офигенный фильм! Один из любимых. Спасибо КЭП за релиз и прекрасное качество и отдельное Спасибо за такое количество выбора перевода!!! А первая и третья часть будет в таком же качестве? Ещё раз - СПАСИБО ОГРОМНОЕ!!!pb.wtf



04-11-2014 14:11 Пришельцы 2: Коридоры времени Скачать торрент  

8ironwead8 писал(а):

А первая и третья часть будет в таком же качестве?

Чуток попозже будет.pb.wtf



04-11-2014 14:53 Пришельцы 2: Коридоры времени Скачать торрент  

08-11-2014 22:55 Пришельцы 2: Коридоры времени Скачать торрент  

КЭП! ДРУЖИЩЕ СПАСИБО ТЕБЕ еще раз за твой Шикарный релиз! Смотрю и пересматриваю эту комедию. Качество просто фантастика! СПАСИБО! СПАСИБО! СПАСИБО!pb.wtf



09-11-2014 06:04 Пришельцы 2: Коридоры времени Скачать торрент  

8ironwead8 писал(а):

КЭП! ДРУЖИЩЕ СПАСИБО ТЕБЕ еще раз за твой Шикарный релиз! Смотрю и пересматриваю эту комедию. Качество просто фантастика! СПАСИБО! СПАСИБО! СПАСИБО!

Всегда пожалуста.pb.wtf



    Дорогой пользователь! Огромная просьба, поблагодарите релизера, оцените раздачу и оставьте свои комментарий, если Вы скачали Пришельцы 2: Коридоры времени через торрент бесплатно! Внесите свою лепту в развитие PiratBit!
    Комментировать посты могут только пользователи прошедшие не сложную регистрацию
    Показать сообщения:    

    Пришельцы 2: Коридоры времени через торрент
    Скачать бесплатно Пришельцы 2: Коридоры времени
    Пришельцы 2: Коридоры времени скачать торрент
    Пришельцы 2: Коридоры времени смотреть онлайн
    Cкачать фильм Пришельцы 2: Коридоры времени бесплатно
    Пришельцы 2: Коридоры времени скачать торрент в хорошем качестве
    Пришельцы 2: Коридоры времени смотреть онлайн бесплатно в хорошем качестве


    Вы не можете начинать темы
    Вы не можете отвечать на сообщения
    Вы не можете редактировать свои сообщения
    Вы не можете удалять свои сообщения
    Вы не можете голосовать в опросах
    Вы не можете прикреплять файлы к сообщениям
    Вы можете скачивать файлы