Ссылка на приватное зеркало нашего сайта всего за 1$. Внимание количество ограничено!!!

2 сезон

iTunes

1 сезон

1

iTunes

iTunes

iTunes

1 сезон

RePack

30

ИГРА 18+

pack

ВАЖНО

!!Акция!!

Alien_RageХит недели

RePack

MK11
pack

Забери бонус

RePack

jed

!!Акция!!

Alien_Rage

RePack

fifa19

RePack

Assassins Creed: Odyssey

RePack

NEED FOR SPEED™ PAYBACK

4 сезон

9 сезон

Бесстыжие 9 сезон

Все сериалы

все сериалы на PB.wtf

RePack

FAR CRY 5
  

Жена путешественника во времени / The Time Traveler's Wife (Роберт Швентке ) [2009, фантастика, фэнтези, драма, BDRip 1080p от _denis_100 / NNNB] DUB, AVO + Original + Sub (Rus, Eng) pb.wtf

Жена путешественника во времени через торрент pb.wtf

Размер: 8.24 GB | Добавлен: 4 года 8 мес. назад | Торрент скачан:174 раза
Скачать  

04-11-2014 07:24 Жена путешественника во времени Скачать торрент  

Жена путешественника во времени / The Time Traveler's Wife



Год выпуска: 2009
Страна: США
Жанр: фантастика, фэнтези, драма, мелодрама
Продолжительность: 01:47:27
Перевод: Дублированный, Авторский одноголосый
Субтитры: русские, английские

Режиссер: Роберт Швентке
В ролях: Рэйчел МакАдамс , Эрик Бана , Арлисс Ховард , Рон Ливингстон , Стивен Тоболовски , Мишель Нолден , Джейн МакЛин , Хейли МакКанн , Бруклин Пру , Татум МакКанн , Алекс Феррис , Кэтерин Троуэлл
Описание:
Они познакомились, когда ей было шесть, а ему - тридцать шесть. Они поженились, когда ей было двадцать три, а ему тридцать один. Потому что Генри страдает редким генетическим заболеванием - синдромом перемещения во времени; его исчезновения из жизни Клэр непредсказуемы, появления - комичны, травматичны и трагичны одновременно.

Качество: BDRip 1080p (исходник Blu-ray)
Контейнер (Расширение): MKV
Видео: 1920x800, 9250 Кбит/сек, 23,976 кадр/сек, 0,251 Бит/[Пиксели*Кадры]
Аудио №1: русский / AC3 / 5.1 / 48 kHz / 448 kbps / 16 bit |Дублированный|
Аудио №2: русский / AC3 / 5.1 / 48 kHz / 640 kbps / 16 bit |Авторский, Ю. Сербин|
Аудио №3: английский / AC3 / 5.1 / 48 kHz / 640 kbps / 16 bit
Навигация по главам(Чаптеры): есть

Цитата:

за оригинал дорожки Ю.Сербина спасибо timur by HDTracker

Автор рипа: Сообщество:

Код:

Format                                   : Matroska
Format version                           : Version 2
File size                                : 8.24 GiB
Duration                                 : 1h 47mn
Overall bit rate                         : 11.0 Mbps
Movie name                               : Zhena puteshestvennika vo vremeni.(2009).BDRip.1080p.[denis100]
Encoded date                             : UTC 2016-02-10 16:22:02
Writing application                      : mkvmerge v5.8.0 ('No Sleep / Pillow') built on Sep  2 2012 15:37:04
Writing library                          : libebml v1.2.3 + libmatroska v1.3.0

Video
ID                                       : 1
Format                                   : AVC
Format/Info                              : Advanced Video Codec
Format profile                           : High@L4.1
Format settings, CABAC                   : Yes
Format settings, ReFrames                : 5 frames
Codec ID                                 : V_MPEG4/ISO/AVC
Duration                                 : 1h 47mn
Bit rate                                 : 9 250 Kbps
Width                                    : 1 920 pixels
Height                                   : 800 pixels
Display aspect ratio                     : 2.40:1
Frame rate                               : 23.976 fps
Color space                              : YUV
Chroma subsampling                       : 4:2:0
Bit depth                                : 8 bits
Scan type                                : Progressive
Bits/(Pixel*Frame)                       : 0.251
Stream size                              : 6.77 GiB (82%)
Title                                    : Zhena puteshestvennika vo vremeni.(2009).BDRip.1080p.[denis100]
Writing library                          : x264 core 138 r2358 9e941d1
Encoding settings                        : cabac=1 / ref=5 / deblock=1:-3:-3 / analyse=0x3:0x133 / me=umh / subme=11 / psy=1 / psy_rd=1.00:0.10 / mixed_ref=1 / me_range=32 / chroma_me=1 / trellis=2 / 8x8dct=1 / cqm=0 / deadzone=21,11 / fast_pskip=0 / chroma_qp_offset=-3 / threads=6 / lookahead_threads=1 / sliced_threads=0 / nr=0 / decimate=1 / interlaced=0 / bluray_compat=0 / constrained_intra=0 / bframes=5 / b_pyramid=2 / b_adapt=2 / b_bias=0 / direct=3 / weightb=1 / open_gop=0 / weightp=2 / keyint=240 / keyint_min=23 / scenecut=40 / intra_refresh=0 / rc=2pass / mbtree=0 / bitrate=9250 / ratetol=1.0 / qcomp=0.60 / qpmin=0 / qpmax=69 / qpstep=4 / cplxblur=20.0 / qblur=0.5 / ip_ratio=1.40 / pb_ratio=1.30 / aq=1:0.90
Language                                 : English
Default                                  : Yes
Forced                                   : No

Audio #1
ID                                       : 2
Format                                   : AC-3
Format/Info                              : Audio Coding 3
Mode extension                           : CM (complete main)
Codec ID                                 : A_AC3
Duration                                 : 1h 47mn
Bit rate mode                            : Constant
Bit rate                                 : 448 Kbps
Channel(s)                               : 6 channels
Channel positions                        : Front: L C R, Side: L R, LFE
Sampling rate                            : 48.0 KHz
Bit depth                                : 16 bits
Compression mode                         : Lossy
Stream size                              : 344 MiB (4%)
Title                                    : Дублированный
Language                                 : Russian
Default                                  : Yes
Forced                                   : No

Audio #2
ID                                       : 3
Format                                   : AC-3
Format/Info                              : Audio Coding 3
Mode extension                           : CM (complete main)
Codec ID                                 : A_AC3
Duration                                 : 1h 47mn
Bit rate mode                            : Constant
Bit rate                                 : 640 Kbps
Channel(s)                               : 6 channels
Channel positions                        : Front: L C R, Side: L R, LFE
Sampling rate                            : 48.0 KHz
Bit depth                                : 16 bits
Compression mode                         : Lossy
Stream size                              : 492 MiB (6%)
Title                                    : Авторский, Ю. Сербин
Language                                 : Russian
Default                                  : No
Forced                                   : No

Audio #3
ID                                       : 4
Format                                   : AC-3
Format/Info                              : Audio Coding 3
Mode extension                           : CM (complete main)
Codec ID                                 : A_AC3
Duration                                 : 1h 47mn
Bit rate mode                            : Constant
Bit rate                                 : 640 Kbps
Channel(s)                               : 6 channels
Channel positions                        : Front: L C R, Side: L R, LFE
Sampling rate                            : 48.0 KHz
Bit depth                                : 16 bits
Compression mode                         : Lossy
Stream size                              : 492 MiB (6%)
Language                                 : English
Default                                  : No
Forced                                   : No

Text #1
ID                                       : 5
Format                                   : UTF-8
Codec ID                                 : S_TEXT/UTF8
Codec ID/Info                            : UTF-8 Plain Text
Title                                    : Русские
Language                                 : Russian
Default                                  : No
Forced                                   : No

Text #2
ID                                       : 6
Format                                   : UTF-8
Codec ID                                 : S_TEXT/UTF8
Codec ID/Info                            : UTF-8 Plain Text
Language                                 : English
Default                                  : No
Forced                                   : No

Menu
00:00:00.000                             : en:00:00:00.000
00:05:11.144                             : en:00:05:11.144
00:09:06.254                             : en:00:09:06.254
00:13:23.469                             : en:00:13:23.469
00:18:51.922                             : en:00:18:51.922
00:23:13.475                             : en:00:23:13.475
00:27:26.895                             : en:00:27:26.895
00:29:57.963                             : en:00:29:57.963
00:33:27.380                             : en:00:33:27.380
00:35:27.292                             : en:00:35:27.292
00:39:53.433                             : en:00:39:53.433
00:43:51.212                             : en:00:43:51.212
00:47:22.006                             : en:00:47:22.006
00:49:54.241                             : en:00:49:54.241
00:54:17.754                             : en:00:54:17.754
00:57:06.256                             : en:00:57:06.256
01:02:46.137                             : en:01:02:46.137
01:08:03.621                             : en:01:08:03.621
01:12:50.741                             : en:01:12:50.741
01:16:26.832                             : en:01:16:26.832
01:19:55.457                             : en:01:19:55.457
01:23:23.290                             : en:01:23:23.290
01:26:45.450                             : en:01:26:45.450
01:32:47.145                             : en:01:32:47.145
01:34:34.836                             : en:01:34:34.836
01:39:15.199                             : en:01:39:15.199

x264 [info]: frame I:1055 Avg QP:15.31 size:194898
x264 [info]: frame P:33694 Avg QP:17.53 size: 86119
x264 [info]: frame B:119777 Avg QP:20.06 size: 36243
pb.wtf



Скачать Жена путешественника во времени через торрент http://i76.fastpic.ru/big/2016/0210/d6/9229d62f70f99c1bd9c0b9cdec964cd6.png Скачать фильм Жена путешественника во времени через торрент бесплантно в хорошем качестве Описание:Они познакомились, когда ей было шесть, а ему - тридцать шесть. Они поженились, когда ей было двадцать три, а ему тридцать один. ... 8.2 10 5
Info! Золотая раздача, скачанное не засчитывается.
Торрент: Зарегистрирован [2016-02-10 16:24] · скачан: 174 раз
Статус: √ проверено
Размер: 8.24 GB
Как cкачать? Как скачать Жена путешественника во времени через торрент | qTorrent



Последний раз редактировалось: _denis_100 (2016-02-10 16:42), всего редактировалось 1 раз

28-11-2019 20:33  

Отключить всю рекламу на сайте

10-02-2016 16:25 Жена путешественника во времени Скачать торрент  

Добавил - Авторский перевод Юрия Сербинаpb.wtf



02-12-2016 19:14 Жена путешественника во времени Скачать торрент  

Потрясающий фильм!pb.wtf



    Дорогой пользователь! Огромная просьба, поблагодарите релизера, оцените раздачу и оставьте свои комментарий, если Вы скачали Жена путешественника во времени через торрент бесплатно! Внесите свою лепту в развитие PiratBit!
    Комментировать посты могут только пользователи прошедшие не сложную регистрацию
    Показать сообщения:    

    Жена путешественника во времени через торрент
    Скачать бесплатно Жена путешественника во времени
    Жена путешественника во времени скачать торрент
    Жена путешественника во времени смотреть онлайн
    Cкачать фильм Жена путешественника во времени бесплатно
    Жена путешественника во времени скачать торрент в хорошем качестве
    Жена путешественника во времени смотреть онлайн бесплатно в хорошем качестве


    Вы не можете начинать темы
    Вы не можете отвечать на сообщения
    Вы не можете редактировать свои сообщения
    Вы не можете удалять свои сообщения
    Вы не можете голосовать в опросах
    Вы не можете прикреплять файлы к сообщениям
    Вы можете скачивать файлы