Ссылка на приватное зеркало всего за 1$. Внимание количество ограничено!!!

iTunes

iTunes

iTunes

1

iTunes

iTunes

iTunes

iTunes

iTunes

30
pack

$ от Little Big

ВАЖНО

!!Акция!!

Alien_RageХит недели

RePack

Resident Evil 21

ИГРА 18+

pack

RePack

jed

!!Акция!!

Alien_Rage

RePack

fifa19

RePack

Assassins Creed: Odyssey

RePack

NEED FOR SPEED™ PAYBACK

4 сезон

9 сезон

Бесстыжие 9 сезон

Все сериалы

все сериалы на PB.wtf

RePack

FAR CRY 5
  

Пришельцы в Америке / Just Visiting (Жан-Мари Пуаре) [2001 г., фантастика, фэнтези, комедия, HDTVRip 720p, Дубляж] pb.wtf

Пришельцы в Америке через торрент pb.wtf

Размер: 5.38 GB | Добавлен: 5 лет 8 мес. назад | Торрент скачан:120 раз
Скачать  

04-11-2014 14:49 Пришельцы в Америке Скачать торрент  

Пришельцы в Америке / Just Visiting
Год выпуска: 2001
Страна: Франция, США
Жанр: фантастика, фэнтези, комедия
Продолжительность: 01:24:20
Перевод: Дубляж
Субтитры: Русские

Режиссер: Жан-Мари Пуаре
Продюссер: Патрис Леду, Рикардо Местрес, Джон А. Амикарелла
Сценарий: Жан-Мари Пуаре, Кристиан Клавье, Джон Хьюз
Бюджет: $35 000 000
Премьера в мире: 6 апреля 2001

IMDB 5.80 (13 185)


В ролях: Жан Рено, Кристина Эпплгейт, Кристиан Клавье, Мэтт Росс, Тара Рид, Бриджит Уилсон, Джон Эйлуорд, Джордж Плимптон, Малкольм МакДауэлл, Мартин Аистроп, Владимир Антоник, Марианна Шульц, Леонид Белозорович, Денис Беспалый, Татьяна Весёлкина

Описание: Новая уморительная комедия о приключениях средневекового рыцаря и его слуги, попавших из XII века в наше время. В голливудской версии знакомые герои из французской комедии «Коридоры времени» граф Тибо и его слуга Андре из-за ошибки мага попадают в современный Чикаго.Там они встречают прапраправнучку Тибо Джулию, и она помогает им вернуться из сумасшедшего XXI века в свое время. Чужие в мире машин и компьютеров, Тибо и Андре производят маленький переполох в большом городе.

Доп. информация:
Особенности рипа
1. Хардсаб
2. Логотип канала в левом верхнем углу


Качество: HDTVRip 720p
Формат: MKV
Видео кодек: AVC
Аудио кодек: DTS / АС-3
Видео: AVC, 1280х720, 7169 Кбит/сек, 25,000 кадр/сек
Аудио#1: Русский: DTS, 6 ch, 1510 Кбит/сек, 48,0 КГц
Аудио#2: Английский: АС-3, 6 ch, 448 Кбит/сек, 48,0 КГц
General
Unique ID : 175065489582376930412701328912632901964 (0x83B463095BCE3BFF80EFC64C7261F14C)
Complete name : /home/sb1855/files/Just Visiting 2001 720p HDTV x264.Rus.Eng-NGB.mkv
Format : Matroska
Format version : Version 2
File size : 5.38 GiB
Duration : 1h 24mn
Overall bit rate : 9 124 Kbps
Movie name : ~Sahaa~
Encoded date : UTC 2010-05-03 18:44:44
Writing application : mkvmerge v2.9.8 ('C'est le bon') built on Aug 13 2009 12:49:06
Writing library : libebml v0.7.7 + libmatroska v0.8.1

Video
ID : 1
Format : AVC
Format/Info : Advanced Video Codec
Format profile : High@L4.1
Format settings, CABAC : Yes
Format settings, ReFrames : 7 frames
Codec ID : V_MPEG4/ISO/AVC
Duration : 1h 24mn
Bit rate : 7 169 Kbps
Width : 1 280 pixels
Height : 720 pixels
Display aspect ratio : 16:9
Frame rate : 25.000 fps
Color space : YUV
Chroma subsampling : 4:2:0
Bit depth : 8 bits
Scan type : Progressive
Bits/(Pixel*Frame) : 0.311
Stream size : 4.12 GiB (77%)
Writing library : x264 core 68 r1183M f21daff
Encoding settings : cabac=1 / ref=7 / deblock=1:-3:-3 / analyse=0x3:0x133 / me=umh / subme=8 / psy_rd=1.0:0.0 / mixed_ref=1 / me_range=24 / chroma_me=1 / trellis=2 / 8x8dct=1 / cqm=0 / deadzone=21,11 / chroma_qp_offset=-2 / threads=12 / nr=0 / decimate=1 / mbaff=0 / bframes=3 / b_pyramid=1 / b_adapt=2 / b_bias=0 / direct=3 / wpredb=1 / keyint=250 / keyint_min=25 / scenecut=40 / rc=2pass / bitrate=7169 / ratetol=1.0 / qcomp=0.60 / qpmin=10 / qpmax=51 / qpstep=4 / cplxblur=20.0 / qblur=0.5 / vbv_maxrate=50000 / vbv_bufsize=50000 / ip_ratio=1.40 / pb_ratio=1.30 / aq=1:1.00
Language : English
Default : Yes
Forced : No

Audio #1
ID : 2
Format : DTS
Format/Info : Digital Theater Systems
Codec ID : A_DTS
Duration : 1h 24mn
Bit rate mode : Constant
Bit rate : 1 510 Kbps
Channel(s) : 6 channels
Channel positions : Front: L C R, Side: L R, LFE
Sampling rate : 48.0 KHz
Bit depth : 16 bits
Compression mode : Lossy
Stream size : 911 MiB (17%)
Language : Russian
Default : Yes
Forced : No

Audio #2
ID : 3
Format : AC-3
Format/Info : Audio Coding 3
Mode extension : CM (complete main)
Format settings, Endianness : Big
Codec ID : A_AC3
Duration : 1h 24mn
Bit rate mode : Constant
Bit rate : 448 Kbps
Channel(s) : 6 channels
Channel positions : Front: L C R, Side: L R, LFE
Sampling rate : 48.0 KHz
Bit depth : 16 bits
Compression mode : Lossy
Stream size : 270 MiB (5%)
Language : English
Default : No
Forced : No

Text
ID : 4
Format : UTF-8
Codec ID : S_TEXT/UTF8
Codec ID/Info : UTF-8 Plain Text
Language : Russian
Default : No
Forced : No

скриншот   скриншот   скриншот  pb.wtf



Скачать Пришельцы в Америке через торрент http://pic.kartinco.top/img/2014-11/04/41bia4ha7gdspi2esh9bwgdr8.jpg Скачать фильм Пришельцы в Америке через торрент бесплантно в хорошем качестве Описание: Новая уморительная комедия о приключениях средневекового рыцаря и его слуги, попавших из XII века в наше время. В голливудской ... 10 10 10
Info! Золотая раздача, скачанное не засчитывается.
Торрент: Зарегистрирован [2014-11-04 14:49] · скачан: 120 раз
Статус: √ проверено
Размер: 5.38 GB
Как cкачать? Как скачать Пришельцы в Америке через торрент | qTorrent

% Раздел Тема Автор DL S | L
Фильмы 2001-2005 [ 1.46 GB ] Пришельцы в Америке / Just Visiting [2001 DVDRip] DUB dexter lex Скачать
1 | 0
Фильмы 2001-2005 [ 744 MB ] Пришельцы в Америке / Just Visiting [2001 DVDRip] DUB dexter lex Скачать
1 | 0


Последний раз редактировалось: кэп (2014-11-04 14:55), всего редактировалось 1 раз

28-11-2019 20:33  

Отключить всю рекламу на сайте

04-11-2014 14:52 Пришельцы в Америке Скачать торрент  

    Дорогой пользователь! Огромная просьба, поблагодарите релизера, оцените раздачу и оставьте свои комментарий, если Вы скачали Пришельцы в Америке через торрент бесплатно! Внесите свою лепту в развитие PiratBit!
    Комментировать посты могут только пользователи прошедшие не сложную регистрацию
    Показать сообщения:    

    Пришельцы в Америке через торрент
    Скачать бесплатно Пришельцы в Америке
    Пришельцы в Америке скачать торрент
    Пришельцы в Америке смотреть онлайн
    Cкачать фильм Пришельцы в Америке бесплатно
    Пришельцы в Америке скачать торрент в хорошем качестве
    Пришельцы в Америке смотреть онлайн бесплатно в хорошем качестве


    Вы не можете начинать темы
    Вы не можете отвечать на сообщения
    Вы не можете редактировать свои сообщения
    Вы не можете удалять свои сообщения
    Вы не можете голосовать в опросах
    Вы не можете прикреплять файлы к сообщениям
    Вы можете скачивать файлы