2 сезон

iTunes

MVO

1

2 сезон

iTunes

iTunes

1 сезон

RePack

30

Новинка

ВАЖНО

ИГРА 18+

pack

RePack

MK11
pack

Легкие деньги

RePack

jed

RePack

fifa19

RePack

RDR2

RePack

NEED FOR SPEED™ PAYBACK

4 сезон

9 сезон

Бесстыжие 9 сезон

Все сериалы

все сериалы на PB.wtf

RePack

FAR CRY 5

Anonymous, доброй ночи, мы не успеваем собрать деньги на оплату серверов за декабрь и январь, помогите нам пожалуйста в это трудное время. В качестве благодарности мы отключим Вам всю рекламу на сайте (укажите свой ник в строку Ваше имя)!

×
  
Magnet ссылка

Инструкции не прилагаются / No se Aceptan Devoluciones (Эухенио Дербес ) [2013, драма, комедия, HDRip, Профессиональный многоголосый [Лицензия] pb.wtf

Инструкции не прилагаются через торрент pb.wtf

Размер: 1.46 GB | Добавлен: 6 лет 2 мес. назад | Торрент скачан:357 раз
Скачать  

04-11-2014 16:01 Инструкции не прилагаются Скачать торрент  


Инструкции не прилагаются / No se Aceptan Devoluciones

«Жизни всё равно, готов ли ты»

Год выпуска: 2013
Страна:Мексика
Жанр:драма, комедия
Продолжительность: 02:01:57
Перевод:Профессиональный многоголосый [Лицензия]
Режиссер:Эухенио Дербес
В ролях:

Андрес Васкес (Valentín niño), Уго Стиглиц (Johnny Bravo), Эухенио Дербес (Valentín), Лея Фрейтас (Amante Brasileña), Анхела Морено (Amante dominicana), Гилда Джентиле (Amante argentina), Нэнси Таира (Amante oriental), Джессика Линдси (Julie), Сэмми Перес (Sammy), Арселия Рамирес (Judeisy), Агустин Берналь (Lupe), Грегг Лукас (Agente migración)
  • Описание:
    Жизнь плейбоя из Акапулько резко меняется, когда на пороге его дома ему вручили грудного младенца со словами - «Это твоя дочь». Шесть лет ему потребовалось, чтобы найти мать девочки, которую он искал от Мехико до Лос-Анджелеса. Чтобы прокормить себя и новообретенную дочь, он устроился в Голливуд и стал ведущим каскадером. Но когда накануне очередного дня рождения девочки у порога его дома появляется настоящая мать Мэгги, он вдруг понимает, что может потерять своего лучшего друга, которыми они стали с девочкой за шесть лет.


    Качество:HDRip
    Формат:AVI
    Видео кодек: XviD
    Аудио кодек:AC3
    Видео: XviD, 720x400 (16:9), 1260 kbps, 23,976 fps, 0,182 bpp
    Аудио: AC3 / 5.1 / 48 kHz / 448 kbps / 16 bit

    Код:

    General
    Complete name                            : D:\Торенты\Instrykcii.ne.prilagautsya.2014.P.HDRip.avi
    Format                                   : AVI
    Format/Info                              : Audio Video Interleave
    File size                                : 1.46 GiB
    Duration                                 : 2h 1mn
    Overall bit rate                         : 1 718 Kbps
    Writing application                      : VirtualDubMod 1.5.10.2 (build 2540/release)
    Writing library                          : VirtualDubMod build 2540/release

    Video
    ID                                       : 0
    Format                                   : MPEG-4 Visual
    Format profile                           : Advanced Simple@L5
    Format settings, BVOP                    : 2
    Format settings, QPel                    : No
    Format settings, GMC                     : No warppoints
    Format settings, Matrix                  : Default (MPEG)
    Codec ID                                 : XVID
    Codec ID/Hint                            : XviD
    Duration                                 : 2h 1mn
    Bit rate                                 : 1 260 Kbps
    Width                                    : 720 pixels
    Height                                   : 400 pixels
    Display aspect ratio                     : 16:9
    Frame rate                               : 23.976 fps
    Color space                              : YUV
    Chroma subsampling                       : 4:2:0
    Bit depth                                : 8 bits
    Scan type                                : Progressive
    Compression mode                         : Lossy
    Bits/(Pixel*Frame)                       : 0.182
    Stream size                              : 1.07 GiB (73%)
    Writing library                          : XviD 1.2.1 (UTC 2008-12-04)

    Audio
    ID                                       : 1
    Format                                   : AC-3
    Format/Info                              : Audio Coding 3
    Mode extension                           : CM (complete main)
    Codec ID                                 : 2000
    Duration                                 : 2h 1mn
    Bit rate mode                            : Constant
    Bit rate                                 : 448 Kbps
    Channel(s)                               : 6 channels
    Channel positions                        : Front: L C R, Side: L R, LFE
    Sampling rate                            : 48.0 KHz
    Bit depth                                : 16 bits
    Compression mode                         : Lossy
    Stream size                              : 391 MiB (26%)
    Alignment                                : Split accross interleaves
    Interleave, duration                     : 42 ms (1.00 video frame)
    Interleave, preload duration             : 500 ms


    Скриншоты:

    Срочно! Нужна помощь!


    © Оформление by Ravenpb.wtf



  • Скачать Инструкции не прилагаются через торрент http://pic.kartinco.top/images/6/ordi9.jpg Скачать фильм Инструкции не прилагаются через торрент бесплантно в хорошем качестве Описание:Жизнь плейбоя из Акапулько резко меняется, когда на пороге его дома ему вручили грудного младенца со словами - «Это твоя дочь». ... 9.7 10 13
    Торрент: Зарегистрирован [2014-11-04 16:01] · скачан: 357 раз
    Статус: √ проверено
    Размер: 1.46 GB
    Как cкачать? Как скачать Инструкции не прилагаются через торрент | UTorrent

    % Раздел Тема Автор DL S | L
    Фильмы 2013 [DVDrip, WEB-DLRip, HDrip] [ 2.05 GB ] Инструкции не прилагаются / No se Aceptan Devoluciones [2013 HDRip многоголосый ] кэп Скачать
    1 | 0

    28-11-2019 20:33  

    Отключить всю рекламу на сайте

    29-01-2015 13:47 Инструкции не прилагаются Скачать торрент  

    Цитата:

    Инструкции не прилагаются / No se Aceptan Devoluciones (Эухенио Дербес ) [2013, драма, комедия, HDRip, Профессиональный многоголосый [Лицензия]

    фильм отличный!! рекомендую...pb.wtf



    02-04-2015 15:32 Инструкции не прилагаются Скачать торрент  

    очень хороший фильм0, жаль хеппи энда нет.pb.wtf



      Дорогой пользователь! Огромная просьба, поблагодарите релизера, оцените раздачу и оставьте свои комментарий, если Вы скачали Инструкции не прилагаются через торрент бесплатно! Внесите свою лепту в развитие PiratBit!
      Комментировать посты могут только пользователи прошедшие не сложную регистрацию
      Показать сообщения:    

      Инструкции не прилагаются через торрент
      Скачать бесплатно Инструкции не прилагаются
      Инструкции не прилагаются скачать торрент
      Инструкции не прилагаются смотреть онлайн
      Cкачать фильм Инструкции не прилагаются бесплатно
      Инструкции не прилагаются скачать торрент в хорошем качестве
      Инструкции не прилагаются смотреть онлайн бесплатно в хорошем качестве


      Вы не можете начинать темы
      Вы не можете отвечать на сообщения
      Вы не можете редактировать свои сообщения
      Вы не можете удалять свои сообщения
      Вы не можете голосовать в опросах
      Вы не можете прикреплять файлы к сообщениям
      Вы можете скачивать файлы