Ссылка на приватное зеркало нашего сайта всего за 1$. Внимание количество ограничено!!!

2 сезон

iTunes

1 сезон

1

iTunes

iTunes

iTunes

1 сезон

RePack

30

ИГРА 18+

pack

ВАЖНО

!!Акция!!

Alien_RageХит недели

RePack

MK11
pack

Забери бонус

RePack

jed

!!Акция!!

Alien_Rage

RePack

fifa19

RePack

Assassins Creed: Odyssey

RePack

NEED FOR SPEED™ PAYBACK

4 сезон

9 сезон

Бесстыжие 9 сезон

Все сериалы

все сериалы на PB.wtf

RePack

FAR CRY 5
  

Когти во тьме / Night Claws (Дэвид А. Прайор ) [2013, ужасы, HDRip, Любительский (одноголосый) (Максим Логинофф) pb.wtf

Когти во тьме через торрент pb.wtf

Размер: 1.45 GB | Добавлен: 5 лет 11 мес. назад | Торрент скачан:73 раза
Скачать  

04-11-2014 16:19 Когти во тьме Скачать торрент  


Когти во тьме / Night Claws

«Living is Not an Option»

Год выпуска: 2013
Страна:США
Жанр:ужасы
Продолжительность: 01:22:48
Перевод:Любительский (одноголосый)(Максим Логинофф)
Режиссер:Дэвид А. Прайор
В ролях:

Рэб Браун (Sheriff Joe Kelly), Лейлани Сарелл (Sarah Evans), Тед Прайор (Charlie Parker), Шерри Роуз (Deputy Roberta Glickman), Дэвид Кэмпбелл (Hunter Crawford), Фрэнк Сталлоне (Testi), Тара Клейнпетер (Sharon Farmer), Алисса Кениг (Cindy Parker), Art. James (Cooter Brown), Эдвард Св. Пэ (Edward), Кендес Вебер (Linda), Трэйси Миллер (Doc Hopper)
  • Описание:
    Маленький городок на юге США был взбудоражен чудовищным убийством двух подростков в лесу. Одной из версий произошедшего является нападение какого-то крупного зверя. Но что это за хищник, который убивает свою жертву и при этом не съедает её. Эту загадку пытаются разрешить местный шериф и профессор из национального музея антропологии....Но они не одиноки в своем стремлении найти убийцу.


    Качество:HDRip
    Формат:AVI
    Видео кодек: XviD
    Аудио кодек:AC3
    Видео: XviD, 720x400 (16:9), 2085 kbps, 23,976 fps, 0,302 bpp
    Аудио №1: AC3 / 2.0 / 48 kHz / 192 kbps / Максим Логинофф
    Аудио №2: AC3 / 2.0 / 48 kHz / 224 kbps / Original

    Код:

    General
    Complete name                            : D:\Торенты\Night.Claws.2013.L1.HDRip.1.45.Gb.avi
    Format                                   : AVI
    Format/Info                              : Audio Video Interleave
    File size                                : 1.45 GiB
    Duration                                 : 1h 22mn
    Overall bit rate                         : 2 516 Kbps
    Writing application                      : VirtualDubMod 1.5.10.3 | www.virtualdub-fr.org || (build 2550/release)
    Writing library                          : VirtualDubMod build 2550/release

    Video
    ID                                       : 0
    Format                                   : MPEG-4 Visual
    Format profile                           : Advanced Simple@L5
    Format settings, BVOP                    : 1
    Format settings, QPel                    : No
    Format settings, GMC                     : No warppoints
    Format settings, Matrix                  : Custom
    Codec ID                                 : XVID
    Codec ID/Hint                            : XviD
    Duration                                 : 1h 22mn
    Bit rate                                 : 2 086 Kbps
    Width                                    : 720 pixels
    Height                                   : 400 pixels
    Display aspect ratio                     : 16:9
    Frame rate                               : 23.976 fps
    Color space                              : YUV
    Chroma subsampling                       : 4:2:0
    Bit depth                                : 8 bits
    Scan type                                : Progressive
    Compression mode                         : Lossy
    Bits/(Pixel*Frame)                       : 0.302
    Stream size                              : 1.21 GiB (83%)
    Writing library                          : XviD 73

    Audio #1
    ID                                       : 1
    Format                                   : AC-3
    Format/Info                              : Audio Coding 3
    Mode extension                           : CM (complete main)
    Codec ID                                 : 2000
    Duration                                 : 1h 22mn
    Bit rate mode                            : Constant
    Bit rate                                 : 192 Kbps
    Channel(s)                               : 2 channels
    Channel positions                        : Front: L R
    Sampling rate                            : 48.0 KHz
    Bit depth                                : 16 bits
    Compression mode                         : Lossy
    Stream size                              : 114 MiB (8%)
    Alignment                                : Split accross interleaves
    Interleave, duration                     : 42 ms (1.00 video frame)
    Interleave, preload duration             : 500 ms

    Audio #2
    ID                                       : 2
    Format                                   : AC-3
    Format/Info                              : Audio Coding 3
    Mode extension                           : CM (complete main)
    Codec ID                                 : 2000
    Duration                                 : 1h 22mn
    Bit rate mode                            : Constant
    Bit rate                                 : 224 Kbps
    Channel(s)                               : 2 channels
    Channel positions                        : Front: L R
    Sampling rate                            : 48.0 KHz
    Bit depth                                : 16 bits
    Compression mode                         : Lossy
    Stream size                              : 133 MiB (9%)
    Alignment                                : Split accross interleaves
    Interleave, duration                     : 42 ms (1.00 video frame)
    Interleave, preload duration             : 500 ms


    Скриншоты:

    Срочно! Нужна помощь!


    © Оформление by Ravenpb.wtf



  • Скачать Когти во тьме через торрент http://pic.kartinco.top/images/6/ordi9.jpg Скачать фильм Когти во тьме через торрент бесплантно в хорошем качестве Описание:Маленький городок на юге США был взбудоражен чудовищным убийством двух подростков в лесу. Одной из версий произошедшего является ... 7 10 3
    Торрент: Зарегистрирован [2014-11-04 16:19] · скачан: 73 раз
    Статус: T временная
    Размер: 1.45 GB
    Как cкачать? Как скачать Когти во тьме через торрент | qTorrent

    28-11-2019 20:33  

    Отключить всю рекламу на сайте

      Дорогой пользователь! Огромная просьба, поблагодарите релизера, оцените раздачу и оставьте свои комментарий, если Вы скачали Когти во тьме через торрент бесплатно! Внесите свою лепту в развитие PiratBit!
      Комментировать посты могут только пользователи прошедшие не сложную регистрацию
      Показать сообщения:    

      Когти во тьме через торрент
      Скачать бесплатно Когти во тьме
      Когти во тьме скачать торрент
      Когти во тьме смотреть онлайн
      Cкачать фильм Когти во тьме бесплатно
      Когти во тьме скачать торрент в хорошем качестве
      Когти во тьме смотреть онлайн бесплатно в хорошем качестве


      Вы не можете начинать темы
      Вы не можете отвечать на сообщения
      Вы не можете редактировать свои сообщения
      Вы не можете удалять свои сообщения
      Вы не можете голосовать в опросах
      Вы не можете прикреплять файлы к сообщениям
      Вы можете скачивать файлы