Ссылка на приватное зеркало нашего сайта всего за 1$. Внимание количество ограничено!!!

2 сезон

iTunes

1 сезон

1

iTunes

iTunes

iTunes

1 сезон

RePack

30

ИГРА 18+

pack

ВАЖНО

!!Акция!!

Alien_RageХит недели

RePack

MK11
pack

Забери бонус

RePack

jed

!!Акция!!

Alien_Rage

RePack

fifa19

RePack

Assassins Creed: Odyssey

RePack

NEED FOR SPEED™ PAYBACK

4 сезон

9 сезон

Бесстыжие 9 сезон

Все сериалы

все сериалы на PB.wtf

RePack

FAR CRY 5
  

Мальчики миссис Браун / Mrs. Brown's Boys D'Movie (Бен Келлетт ) [2014, комедия, HDRip, Любительский (одноголосый) pb.wtf

Мальчики миссис Браун через торрент pb.wtf

Размер: 1.37 GB | Добавлен: 5 лет 11 мес. назад | Торрент скачан:114 раз
Скачать  

04-11-2014 16:42 Мальчики миссис Браун Скачать торрент  

Мальчики миссис Браун / Mrs. Brown's Boys D'Movie


Год выпуска: 2014
Страна: Великобритания, Ирландия
Жанр:комедия
Продолжительность:01:34:19
Перевод:Любительский (одноголосый[Виктор Береговых] - по переводу [М.Васильева]
Режиссер:Бен Келлетт

  • В ролях:
    Брендан О’Кэрролл (Agnes Brown), Дженнифер Гибни (Cathy Brown), Эйлиш О’Кэрролл (Winnie McGoogan), Дэнни О’Кэрролл (Buster Brady), Фиона О’Кэрролл (Maria Brown), Пэдди Хулихан (Dermot Brown), Гари Халливуд (Dino Doyle), Jimmy Gibney (Father McBride), Jamie O'Carroll (Bono Brown), Дермот О’Нилл (Grandad Brown), Пэт Шилдс (Mark Brown), Аманда Вудс (Betty Brown)

  • Описание:
    Полнометражный фильм, снятый по мотивам суперпопулярного ирландского ситкома "Семейка миссис Браун", рассказывающего о жизни дружной, но немножко взбалмошной семьи Браунов, где всем верховодит веселая вдова - миссис Агнес Браун.
    Пожилая, но еще весьма бойкая Агнес Браун торгует в собственной овощной лавке на дублинском рынке. Женщина надеется когда-нибудь передать семейный бизнес своей дочери, но однажды Агнес узнаёт, что её мечтам не суждено сбыться, поскольку вскоре весь рынок будет закрыт, а на его месте возведут торговый центр. Тогда Агнес вступает в конфронтацию с безжалостным застройщиком и его подчиненными, намереваясь любой ценой сохранить рынок, которому она посвятила всю жизнь. К счастью, Агнес будет бороться не в одиночку и ей помогут друзья: эксцентричный сосед Винни, лучший приятель Дермот и адвокат-неудачник Мэйдо-Арчер.

  • Мировая премьера:27 июня 2014

    Качество: HDRip
    Формат:AVI
    Видео кодек: XviD
    Аудио кодек:AC3, MP3
    Видео: XviD, 720x384 (1.875), 1621 kbps, 23,976 fps, 0,245 bpp
    Аудио №1: AC3 / 2.0 / 48 kHz / 192 kbps / Русский
    Аудио №2: MP3 / 2.0 / 48 kHz / 256 kbps / Английский


    Код:

    General
    Complete name                            : D:\Торенты\Mrs.Browns.Boys.D.Movies.2014.HDRip.1400mb.avi
    Format                                   : AVI
    Format/Info                              : Audio Video Interleave
    File size                                : 1.37 GiB
    Duration                                 : 1h 34mn
    Overall bit rate                         : 2 084 Kbps
    Writing application                      : VirtualDubModRus 1.5.10.2 (build 2542/release)
    Writing library                          : VirtualDubMod build 2542/release
    Copyright                                : SaM

    Video
    ID                                       : 0
    Format                                   : MPEG-4 Visual
    Format profile                           : Advanced Simple@L5
    Format settings, BVOP                    : 4
    Format settings, QPel                    : No
    Format settings, GMC                     : No warppoints
    Format settings, Matrix                  : Default (H.263)
    Muxing mode                              : Packed bitstream
    Codec ID                                 : XVID
    Codec ID/Hint                            : XviD
    Duration                                 : 1h 34mn
    Bit rate                                 : 1 622 Kbps
    Width                                    : 720 pixels
    Height                                   : 384 pixels
    Display aspect ratio                     : 1.875
    Frame rate                               : 23.976 fps
    Color space                              : YUV
    Chroma subsampling                       : 4:2:0
    Bit depth                                : 8 bits
    Scan type                                : Progressive
    Compression mode                         : Lossy
    Bits/(Pixel*Frame)                       : 0.245
    Stream size                              : 1.07 GiB (78%)
    Writing library                          : XviD 65

    Audio #1
    ID                                       : 1
    Format                                   : AC-3
    Format/Info                              : Audio Coding 3
    Mode extension                           : CM (complete main)
    Codec ID                                 : 2000
    Duration                                 : 1h 34mn
    Bit rate mode                            : Constant
    Bit rate                                 : 192 Kbps
    Channel(s)                               : 2 channels
    Channel positions                        : Front: L R
    Sampling rate                            : 48.0 KHz
    Bit depth                                : 16 bits
    Compression mode                         : Lossy
    Stream size                              : 130 MiB (9%)
    Alignment                                : Split accross interleaves
    Interleave, duration                     : 42 ms (1.00 video frame)
    Interleave, preload duration             : 500 ms

    Audio #2
    ID                                       : 2
    Format                                   : MPEG Audio
    Format version                           : Version 1
    Format profile                           : Layer 3
    Codec ID                                 : 55
    Codec ID/Hint                            : MP3
    Duration                                 : 1h 34mn
    Bit rate mode                            : Constant
    Bit rate                                 : 256 Kbps
    Channel(s)                               : 2 channels
    Sampling rate                            : 48.0 KHz
    Compression mode                         : Lossy
    Stream size                              : 173 MiB (12%)
    Alignment                                : Aligned on interleaves
    Interleave, duration                     : 42 ms (1.00 video frame)
    Interleave, preload duration             : 504 ms
    Writing library                          : LAME3.99r
    Encoding settings                        : -m s -V 4 -q 0 -lowpass 19.7

    Скриншоты:

    Срочно! Нужна помощь!


    © Оформление by Ravenpb.wtf



  • Скачать Мальчики миссис Браун через торрент http://i68.fastpic.ru/big/2014/1104/fa/b877e5eb4a3a4944a14e7cc223ba25fa.jpg Скачать фильм Мальчики миссис Браун через торрент бесплантно в хорошем качестве Описание:Полнометражный фильм, снятый по мотивам суперпопулярного ирландского ситкома "Семейка миссис Браун", рассказывающего о жизни ... 10 10 5
    Торрент: Зарегистрирован [2014-11-04 16:42] · скачан: 114 раз
    Статус: T временная
    Размер: 1.37 GB
    Как cкачать? Как скачать Мальчики миссис Браун через торрент | qTorrent

    28-11-2019 20:33  

    Отключить всю рекламу на сайте

      Дорогой пользователь! Огромная просьба, поблагодарите релизера, оцените раздачу и оставьте свои комментарий, если Вы скачали Мальчики миссис Браун через торрент бесплатно! Внесите свою лепту в развитие PiratBit!
      Комментировать посты могут только пользователи прошедшие не сложную регистрацию
      Показать сообщения:    

      Мальчики миссис Браун через торрент
      Скачать бесплатно Мальчики миссис Браун
      Мальчики миссис Браун скачать торрент
      Мальчики миссис Браун смотреть онлайн
      Cкачать фильм Мальчики миссис Браун бесплатно
      Мальчики миссис Браун скачать торрент в хорошем качестве
      Мальчики миссис Браун смотреть онлайн бесплатно в хорошем качестве


      Вы не можете начинать темы
      Вы не можете отвечать на сообщения
      Вы не можете редактировать свои сообщения
      Вы не можете удалять свои сообщения
      Вы не можете голосовать в опросах
      Вы не можете прикреплять файлы к сообщениям
      Вы можете скачивать файлы