Ссылка на приватное зеркало нашего сайта всего за 1$. Внимание количество ограничено!!!

2 сезон

iTunes

1 сезон

1

iTunes

iTunes

iTunes

1 сезон

RePack

30

ИГРА 18+

pack

ВАЖНО

!!Акция!!

Alien_RageХит недели

RePack

MK11
pack

Забери бонус

RePack

jed

!!Акция!!

Alien_Rage

RePack

fifa19

RePack

Assassins Creed: Odyssey

RePack

NEED FOR SPEED™ PAYBACK

4 сезон

9 сезон

Бесстыжие 9 сезон

Все сериалы

все сериалы на PB.wtf

RePack

FAR CRY 5
  

Сверкающие седла / Пылающие седла / Blazing Saddles (Мэл Брукс) [1974, комедия, вестерн, BDRip 720p] DVO, AVO pb.wtf

Сверкающие седла через торрент pb.wtf

Размер: 7.77 GB | Добавлен: 5 лет 11 мес. назад | Торрент скачан:31 раз
Скачать  

05-11-2014 08:27 Сверкающие седла Скачать торрент  

Информация о фильме

Русское название: Сверкающие седла / Пылающие седла
Оригинальное название: Blazing Saddles
Год выхода: 1974
Жанр: комедия, вестерн
Режиссер: Мэл Брукс
Выпущено: США
Продолжительность: 01:32:54
Перевод: Профессиональный (Двухголосый закадровый), Авторский (А.Михалёв) (В.Горчаков) (Л.Володарский) (Петербуржец)
В ролях: Кливон Литтл, Джин Уайлдер, Слим Пикенс, Харви Кормен, Мэдлин Кан, Мэл Брукс, Бертон Гиллиам, Алекс Кэррас, Дэвид Хаддлстон, Лиам Данн


Сюжет фильма

Железная дорога должна пройти через городок Рок Ридж. Но как выгнать местных жителей из города, если хочешь украсть у них землю? Заслать самую отчаянную банду головорезов… и назначить нового чернокожего шерифа, который протянет не больше суток.


Файл

Качество: BDRip 720p
Формат: AVC (библиотека кодирования x.264)
Контейнер (Расширение): MKV
Видео кодек: AVC
Аудио кодек:AC3
Видео: 1906x800, 10490 Кбит/сек, 23,976 кадр/сек, AVC, x264, High@L4.1, 2.40:1, 0.287 Бит/[Пиксели*Кадры]
Аудио 1: AC-3, 192 Кбит/сек, 1 канала(ов), 48,0 КГц - Двухголосый закадровый / Русский
Аудио 2: AC-3, 224 Кбит/сек, 2 канала(ов), 48,0 КГц - Одноголосый закадровый, А.Михалёв / Русский
Аудио 3: AC-3, 224 Кбит/сек, 2 канала(ов), 48,0 КГц - Одноголосый закадровый, В.Горчаков / Русский
Аудио 4: AC-3, 192 Кбит/сек, 2 канала(ов), 48,0 КГц - Одноголосый закадровый, Петербуржец / Русский
Аудио 5: AC-3, 192 Кбит/сек, 1 канала(ов), 48,0 КГц - Одноголосый закадровый, Л.Володарский / Русский
Аудио 6: AC-3, 448 Кбит/сек, 6 канала(ов), 48,0 КГц - Оригинал / Английский
Субтитры: Русские | Полные, Английские | Полные
Форсированные субтитры: Нет
Чаптеры (Главы): Есть






Сэмпл




Автор Рипа: Сообщество:


скриншот   скриншот   скриншот  

Код:

Format                                   : Matroska
Format version                           : Version 2
File size                                : 7.77 GiB
Duration                                 : 1h 32mn
Overall bit rate                         : 12.0 Mbps
Movie name                               : Сверкающие седла.(1974).BDRip.1080p.[envy]
Encoded date                             : UTC 2014-11-05 07:54:10
Writing application                      : mkvmerge v5.8.0 ('No Sleep / Pillow') built on Sep  2 2012 15:37:04
Writing library                          : libebml v1.2.3 + libmatroska v1.3.0

Video
ID                                       : 1
Format                                   : AVC
Format/Info                              : Advanced Video Codec
Format profile                           : High@L4.1
Format settings, CABAC                   : Yes
Format settings, ReFrames                : 5 frames
Codec ID                                 : V_MPEG4/ISO/AVC
Duration                                 : 1h 32mn
Bit rate                                 : 10.5 Mbps
Width                                    : 1 906 pixels
Height                                   : 800 pixels
Display aspect ratio                     : 2.40:1
Frame rate mode                          : Constant
Frame rate                               : 23.976 fps
Color space                              : YUV
Chroma subsampling                       : 4:2:0
Bit depth                                : 8 bits
Scan type                                : Progressive
Bits/(Pixel*Frame)                       : 0.287
Stream size                              : 6.66 GiB (86%)
Title                                    : Сверкающие седла.(1974).BDRip.1080p.[envy]
Writing library                          : x264 core 142 r2479 dd79a61
Encoding settings                        : cabac=1 / ref=5 / deblock=1:-3:-3 / analyse=0x3:0x113 / me=umh / subme=11 / psy=1 / psy_rd=1.00:0.00 / mixed_ref=1 / me_range=32 / chroma_me=1 / trellis=2 / 8x8dct=1 / cqm=0 / deadzone=21,11 / fast_pskip=0 / chroma_qp_offset=-2 / threads=12 / lookahead_threads=1 / sliced_threads=0 / nr=0 / decimate=1 / interlaced=0 / bluray_compat=0 / constrained_intra=0 / bframes=6 / b_pyramid=2 / b_adapt=2 / b_bias=0 / direct=3 / weightb=1 / open_gop=0 / weightp=2 / keyint=240 / keyint_min=23 / scenecut=40 / intra_refresh=0 / rc=2pass / mbtree=0 / bitrate=10490 / ratetol=2.0 / qcomp=0.60 / qpmin=0 / qpmax=69 / qpstep=4 / cplxblur=20.0 / qblur=0.5 / ip_ratio=1.40 / pb_ratio=1.30 / aq=2:1.00
Language                                 : English
Default                                  : Yes
Forced                                   : No

Audio #1
ID                                       : 2
Format                                   : AC-3
Format/Info                              : Audio Coding 3
Mode extension                           : CM (complete main)
Format settings, Endianness              : Big
Codec ID                                 : A_AC3
Duration                                 : 1h 32mn
Bit rate mode                            : Constant
Bit rate                                 : 192 Kbps
Channel(s)                               : 1 channel
Channel positions                        : Front: C
Sampling rate                            : 48.0 KHz
Bit depth                                : 16 bits
Compression mode                         : Lossy
Stream size                              : 128 MiB (2%)
Title                                    : DVO
Language                                 : Russian
Default                                  : No
Forced                                   : No

Audio #2
ID                                       : 3
Format                                   : AC-3
Format/Info                              : Audio Coding 3
Mode extension                           : CM (complete main)
Format settings, Endianness              : Big
Codec ID                                 : A_AC3
Duration                                 : 1h 32mn
Bit rate mode                            : Constant
Bit rate                                 : 224 Kbps
Channel(s)                               : 2 channels
Channel positions                        : Front: L R
Sampling rate                            : 48.0 KHz
Bit depth                                : 16 bits
Compression mode                         : Lossy
Stream size                              : 149 MiB (2%)
Title                                    : Mihaljov
Language                                 : Russian
Default                                  : No
Forced                                   : No

Audio #3
ID                                       : 4
Format                                   : AC-3
Format/Info                              : Audio Coding 3
Mode extension                           : CM (complete main)
Format settings, Endianness              : Big
Codec ID                                 : A_AC3
Duration                                 : 1h 32mn
Bit rate mode                            : Constant
Bit rate                                 : 224 Kbps
Channel(s)                               : 2 channels
Channel positions                        : Front: L R
Sampling rate                            : 48.0 KHz
Bit depth                                : 16 bits
Compression mode                         : Lossy
Stream size                              : 149 MiB (2%)
Title                                    : Gorchakov
Language                                 : Russian
Default                                  : No
Forced                                   : No

Audio #4
ID                                       : 5
Format                                   : AC-3
Format/Info                              : Audio Coding 3
Mode extension                           : CM (complete main)
Format settings, Endianness              : Big
Codec ID                                 : A_AC3
Duration                                 : 1h 32mn
Bit rate mode                            : Constant
Bit rate                                 : 192 Kbps
Channel(s)                               : 2 channels
Channel positions                        : Front: L R
Sampling rate                            : 48.0 KHz
Bit depth                                : 16 bits
Compression mode                         : Lossy
Stream size                              : 128 MiB (2%)
Title                                    : VO Peterburzhec
Language                                 : Russian
Default                                  : No
Forced                                   : No

Audio #5
ID                                       : 6
Format                                   : AC-3
Format/Info                              : Audio Coding 3
Mode extension                           : CM (complete main)
Format settings, Endianness              : Big
Codec ID                                 : A_AC3
Duration                                 : 1h 32mn
Bit rate mode                            : Constant
Bit rate                                 : 192 Kbps
Channel(s)                               : 1 channel
Channel positions                        : Front: C
Sampling rate                            : 48.0 KHz
Bit depth                                : 16 bits
Compression mode                         : Lossy
Stream size                              : 128 MiB (2%)
Title                                    : Volodarskij
Language                                 : Russian
Default                                  : No
Forced                                   : No

Audio #6
ID                                       : 7
Format                                   : AC-3
Format/Info                              : Audio Coding 3
Mode extension                           : CM (complete main)
Format settings, Endianness              : Big
Codec ID                                 : A_AC3
Duration                                 : 1h 32mn
Bit rate mode                            : Constant
Bit rate                                 : 448 Kbps
Channel(s)                               : 6 channels
Channel positions                        : Front: L C R, Side: L R, LFE
Sampling rate                            : 48.0 KHz
Bit depth                                : 16 bits
Compression mode                         : Lossy
Stream size                              : 298 MiB (4%)
Title                                    : Eng
Language                                 : English
Default                                  : No
Forced                                   : No

Text #1
ID                                       : 8
Format                                   : UTF-8
Codec ID                                 : S_TEXT/UTF8
Codec ID/Info                            : UTF-8 Plain Text
Title                                    : full
Language                                 : Russian
Default                                  : No
Forced                                   : No

Text #2
ID                                       : 9
Format                                   : UTF-8
Codec ID                                 : S_TEXT/UTF8
Codec ID/Info                            : UTF-8 Plain Text
Title                                    : full
Language                                 : English
Default                                  : No
Forced                                   : No

Menu
00:00:00.000                             : en:
00:02:17.762                             : en:
00:05:59.442                             : en:
00:08:49.779                             : en:
00:13:08.788                             : en:
00:18:23.602                             : en:
00:21:45.053                             : en:
00:25:14.513                             : en:
00:30:21.027                             : en:
00:31:59.959                             : en:
00:40:51.490                             : en:
00:43:02.580                             : en:
00:48:25.903                             : en:
00:50:02.708                             : en:
00:52:45.871                             : en:
00:58:20.872                             : en:
01:01:23.971                             : en:
01:07:11.318                             : en:
01:11:53.309                             : en:
01:13:28.987                             : en:
01:17:22.346                             : en:
01:19:28.889                             : en:
01:20:38.708                             : en:
01:23:26.626                             : en:
01:27:41.589                             : en:
01:32:16.531                             : en:



pb.wtf



Скачать Сверкающие седла через торрент http://www.firepic.org/images/2014-11/05/mxo4tlc1rxvz.png Скачать фильм Сверкающие седла через торрент бесплантно в хорошем качестве В ролях: Кливон Литтл, Джин Уайлдер, Слим Пикенс, Харви Кормен, Мэдлин Кан, Мэл Брукс, Бертон Гиллиам, Алекс Кэррас, Дэвид Хаддлстон, Лиам ... 10 10 4
Торрент: Зарегистрирован [2014-11-05 08:32] · скачан: 31 раз
Статус: √ проверено
Размер: 7.77 GB
Как cкачать? Как скачать Сверкающие седла через торрент | qTorrent

28-11-2019 20:33  

Отключить всю рекламу на сайте

    Дорогой пользователь! Огромная просьба, поблагодарите релизера, оцените раздачу и оставьте свои комментарий, если Вы скачали Сверкающие седла через торрент бесплатно! Внесите свою лепту в развитие PiratBit!
    Комментировать посты могут только пользователи прошедшие не сложную регистрацию
    Показать сообщения:    

    Сверкающие седла через торрент
    Скачать бесплатно Сверкающие седла
    Сверкающие седла скачать торрент
    Сверкающие седла смотреть онлайн
    Cкачать фильм Сверкающие седла бесплатно
    Сверкающие седла скачать торрент в хорошем качестве
    Сверкающие седла смотреть онлайн бесплатно в хорошем качестве


    Вы не можете начинать темы
    Вы не можете отвечать на сообщения
    Вы не можете редактировать свои сообщения
    Вы не можете удалять свои сообщения
    Вы не можете голосовать в опросах
    Вы не можете прикреплять файлы к сообщениям
    Вы можете скачивать файлы