2 сезон

iTunes

1 сезон

1

iTunes

iTunes

iTunes

1 сезон

RePack

30

ИГРА 18+

pack

ВАЖНО

!!Акция!!

Alien_RageХит недели

RePack

MK11
pack

Забери бонус

RePack

jed

!!Акция!!

Alien_Rage

RePack

fifa19

RePack

Assassins Creed: Odyssey

RePack

NEED FOR SPEED™ PAYBACK

4 сезон

9 сезон

Бесстыжие 9 сезон

Все сериалы

все сериалы на PB.wtf

RePack

FAR CRY 5
  

Сын за отца / Серии: 1-24 из 24 (Резо Гигинеишвили, Леван Когуашвили) [2014 г., Драма, криминал, SATRip] pb.wtf

Сын за отца через торрент pb.wtf

Размер: 15.67 GB | Добавлен: 5 лет 10 мес. назад | Торрент скачан:164 раза
Скачать  

05-11-2014 19:22 Сын за отца Скачать торрент  

Сын за отца Год выпуска: 2014
Страна: Россия Небо, Yellow, Black & White
Жанр: Драма, криминал
Продолжительность: 24 х ~ 00:43:00

Режиссер: Резо Гигинеишвили, Леван Когуашвили
Продюссер: Екатерина Ефанова, Эдуард Илоян, Резо Гигинеишвили
Сценарий: Александр Даган, Александр Мышанский, Людмила Орлова, ...

Премьера в мире: 5 ноября 2014 В ролях: Антон Макарский, Алексей Горбунов, Татьяна Лютаева, Денис Никифоров, Светлана Устинова, Марина Дюжева, Александр Феклистов, Марина Коняшкина, Антон Шурцов, Виталий Кищенко, Николай Шатохин, Анна Халилулина, Александр Барановский, Валентин Терехов, Мартиньш Вилсонс, Алина Сергеева, Пётр Баранчеев, Яна Сексте, Михаил Негин, Владимир Алфёров, Наталья Винтилова

Описание: Вадим — молодой человек строгих нравов и чётких жизненных правил. Он обожает свою невесту, мать и отца, любит и умеет делать свою работу. Вадим хорошо понимает, чего хочет в жизни и знает, как добиться поставленной цели. Однако резкий поворот судьбы в одночасье ломает весь выстроенный вокруг Вадима мир, открыв глаза на его истинное происхождение и вынуждая пересмотреть свои жизненные планы. После трагической смерти отца герой узнаёт, что на самом деле его усыновили, а настоящим биологическим отцом Вадима оказывается криминальный авторитет, бандит и убийца — олицетворение всего того, что Вадим считает неприемлемым и недопустимым в своей жизни. Познакомившись с родным отцом и его мировоззрением, герой то и дело оказывается в ситуации, когда ему приходится выбирать между полученными в детстве четкими представлениями о морали и нравственности, и «реальной жизнью», в которой аморальные поступки позволяют кратчайшим путем добиваться «благих целей».

Качество: SATRip
Формат: AVI
Видео кодек: XviD
Аудио кодек: AC3
Видео: Xvid 720x400, 25fps, 1799kbps
Аудио: Dolby AC3, 48000Hz, stereo, 192kbps
Релиз от: zeka80





General
Complete name : E:\01 02 sicret2\Syn.Za.Otca.SATRip\Syn.Za.Otca.01.SATRip.avi
Format : AVI
Format/Info : Audio Video Interleave
File size : 664 MiB
Duration : 46mn 22s
Overall bit rate : 2 002 Kbps
Writing application : VirtualDubMod 1.5.10.3 | (build 2550/release)
Writing library : VirtualDubMod build 2550/release

Video
ID : 0
Format : MPEG-4 Visual
Format profile : Advanced Simple@L5
Format settings, BVOP : 2
Format settings, QPel : No
Format settings, GMC : No warppoints
Format settings, Matrix : Default (H.263)
Codec ID : XVID
Codec ID/Hint : XviD
Duration : 46mn 22s
Bit rate : 1 800 Kbps
Width : 720 pixels
Height : 400 pixels
Display aspect ratio : 16:9
Frame rate : 25.000 fps
Color space : YUV
Chroma subsampling : 4:2:0
Bit depth : 8 bits
Scan type : Progressive
Compression mode : Lossy
Bits/(Pixel*Frame) : 0.250
Stream size : 597 MiB (90%)
Writing library : XviD 1.2.1 (UTC 2008-12-04)

Audio
ID : 1
Format : AC-3
Format/Info : Audio Coding 3
Mode extension : CM (complete main)
Format settings, Endianness : Big
Codec ID : 2000
Duration : 46mn 22s
Bit rate mode : Constant
Bit rate : 192 Kbps
Channel(s) : 2 channels
Channel positions : Front: L R
Sampling rate : 48.0 KHz
Bit depth : 16 bits
Compression mode : Lossy
Stream size : 63.7 MiB (10%)
Alignment : Split accross interleaves
Interleave, duration : 40 ms (1.00 video frame)
Interleave, preload duration : 500 ms

Внимание! Раздача ведётся путём добавления новых серий; при каждом добавлении создаётся новый торрент-файл. Чтобы начать дозакачку новой серии, пользователям необходимо сделать следующее:
(1) остановить скачивание,
(2) удалить старый торрент-файл у себя из клиента (старые серии удалять не надо),
(3) скачать новый торрент-файл и запустить его у себя в клиенте вместо старого, при этом указать клиенту путь в старую папку куда и должно происходить скачивание новых серий.
Ваш клиент при этом должен произвести хеширование (проверку) старой папки (если не производит сам - помогите ему сделать это), и будет докачивать только те серии которых у вас ещё нет. Старые серии при этом не удаляются, а продолжают раздаваться!
Eсли вы уже удалили старые серии, то предотвратить повторную закачку старых серий можно, отжав галочку в соответствующих местах при запуске нового торрента.
Добавлено с 12-24 серии!Обновите торрент!!!pb.wtf



Скачать Сын за отца через торрент http://pic.kartinco.top/img/2014-11/05/9edeo2p08yne09qxn6014m7wq.jpg Скачать фильм Сын за отца через торрент бесплантно в хорошем качестве Описание: Вадим — молодой человек строгих нравов и чётких жизненных правил. Он обожает свою невесту, мать и отца, любит и умеет делать свою ... 10 10 20
Торрент: Зарегистрирован [2014-12-03 21:46] · скачан: 164 раз
Статус: √ проверено
Размер: 15.67 GB
Как cкачать? Как скачать Сын за отца через торрент | qTorrent

% Раздел Тема Автор DL S | L
Наши сериалы [ 12.87 GB ] Сын за отца / Сезон: 1 / Серии: 1-24 из 24 [2014 WEB-DLRip] bober100 Скачать
1 | 0
Наши сериалы [ 38.18 GB ] Сын за отца / Сезон: 1 / Серии: 1-24 из 24 [2014 WEB-DL 1080p] bober100 Скачать
1 | 0
Наши сериалы [ 10.6 GB ] Сын за отца / Сезон: 1 / Серии 1-24 из 24 [2014 Россия WEB-DLRip-AVC) GEKADOL Скачать
1 | 0


Последний раз редактировалось: lug30 (2014-12-03 21:46), всего редактировалось 2 раз(а)

28-11-2019 20:33  

Отключить всю рекламу на сайте

06-11-2014 18:47 Сын за отца Скачать торрент  

Добавил с 5-8 серии!Обновите торрент!!!pb.wtf



11-11-2014 05:50 Сын за отца Скачать торрент  

Добавил с 9-11 серии!Обновите торрент!!!pb.wtf



13-11-2014 16:22 Сын за отца Скачать торрент  

Привет. Подскажи когда обновятся серии?pb.wtf



14-11-2014 17:04 Сын за отца Скачать торрент  

привет,как появятся в сети, от меня независитpb.wtf



03-12-2014 06:38 Сын за отца Скачать торрент  

lug30, Привет. Когда остальные серии будут?pb.wtf



03-12-2014 21:47 Сын за отца Скачать торрент  

Добавлено с 12-24 серии!Обновите торрент!!!pb.wtf



    Дорогой пользователь! Огромная просьба, поблагодарите релизера, оцените раздачу и оставьте свои комментарий, если Вы скачали Сын за отца через торрент бесплатно! Внесите свою лепту в развитие PiratBit!
    Комментировать посты могут только пользователи прошедшие не сложную регистрацию
    Показать сообщения:    

    Сын за отца через торрент
    Скачать бесплатно Сын за отца
    Сын за отца скачать торрент
    Сын за отца смотреть онлайн
    Cкачать фильм Сын за отца бесплатно
    Сын за отца скачать торрент в хорошем качестве
    Сын за отца смотреть онлайн бесплатно в хорошем качестве


    Вы не можете начинать темы
    Вы не можете отвечать на сообщения
    Вы не можете редактировать свои сообщения
    Вы не можете удалять свои сообщения
    Вы не можете голосовать в опросах
    Вы не можете прикреплять файлы к сообщениям
    Вы можете скачивать файлы