Death Stranding+DLC+АВТОАКТИВАЦИЯ

iTunes

iTunes

iTunes

1

iTunes

iTunes

iTunes

iTunes

iTunes

30
pack

$ от Little Big

ВАЖНО

!!Акция!!

Alien_RageХит недели

RePack

Resident Evil 21

ИГРА 18+

pack

RePack

jed

!!Акция!!

Alien_Rage

RePack

fifa19

RePack

Assassins Creed: Odyssey

RePack

NEED FOR SPEED™ PAYBACK

4 сезон

9 сезон

Бесстыжие 9 сезон

Все сериалы

все сериалы на PB.wtf

RePack

FAR CRY 5
  

Пудра / Powder (Виктор Сальва) [1995 г., фантастика, фэнтези, драма, HDTVRip 720p] DVO(HTB+ / VHS) AVO (П.Карцев), SUB pb.wtf

Пудра через торрент pb.wtf

Размер: 4.77 GB | Добавлен: 5 лет 8 мес. назад | Торрент скачан:63 раза
Скачать  

06-11-2014 08:21 Пудра Скачать торрент  

Пудра / Powder
«Есть тайны, перед которыми наука бессильна»

Год выпуска: 1995
Страна: США
Жанр: фантастика, фэнтези, драма
Продолжительность: 01:51:38
Перевод: Профессиональный двухголосый закадровый (HTB+ / VHS), Одноголосый авторский (П.Карцев)
Субтитры: Russian, English

Режиссер: Виктор Сальва



В ролях: Шон Патрик Флэнери, Мэри Стинберген, Лэнс Хенриксен, Джефф Голдблюм, Брэндон Смит, Брэдфорд Татум, Сьюзен Тиррел, Мисси Крайдер, Рэй Уайз, Эстебан Пауэлл

Описание: «Пудра» - это странное прозвище ученики дают своему новому однокласснику Джереми. Сверстники пугаются его необычной внешности, мертвенно - бледной кожи, испепеляющего взгляда, проникающего в самое сердце собеседника. Но вскоре они понимают, что Пудра обладает сверхъестественными способностями, и за белым холодом его лица бушует пламя невероятной энергии. Так кто же он - ошибка природы или ее венец, новая ступень человеческой эволюции? Есть тайны, перед которыми наука бессильна...

Доп. информация: Дорожка №2 отреставрирована.
Дорожка №3 получена микшированием чистого голоса с оригиналом.

Качество: HDTVRip 720p
Формат: MKV
Видео кодек: AVC
Аудио кодек: AC3
Видео: 1280x720 at 23.976 fps, x264, ~4675 kbps avg
Аудио#1: Rus: 48 kHz, 3/2 (L,C,R,l,r) + LFE ch, ~384 kbps avg |Двухголосый закадровый, НТВ+|
Аудио#2: Rus: 48 kHz, 2/0 (L,R) ch, ~192 kbps avg |Двухголосый закадровый, VHS|
Аудио#3: Rus: 48 kHz, 3/2 (L,C,R,l,r) + LFE ch, ~384 kbps avg |Одноголосый закадровый, П.Карцев|
Аудио#4: En: 48 kHz, 3/2 (L,C,R,l,r) + LFE ch, ~384 kbps avg
скриншот   скриншот   скриншот   скриншот   скриншот   скриншот  

General
Unique ID : 226592688208179026035195128405516161981 (0xAA782A122E8EBCD78C0FB158D24D13BD)
Complete name : E:\Пудра\Powder.1995.720p.HDTV.3xRus.Eng-HDCLUB.mkv
Format : Matroska
Format version : Version 2
File size : 4.77 GiB
Duration : 1h 51mn
Overall bit rate : 6 122 Kbps
Movie name : Powder (1995) - Release for HDCLUB
Encoded date : UTC 2012-05-01 10:29:59
Writing application : mkvmerge v5.2.1 ('A Far Off Place') built on Jan 2 2012 23:21:10
Writing library : libebml v1.2.3 + libmatroska v1.3.0

Video
ID : 1
Format : AVC
Format/Info : Advanced Video Codec
Format profile : High@L4.1
Format settings, CABAC : Yes
Format settings, ReFrames : 9 frames
Codec ID : V_MPEG4/ISO/AVC
Duration : 1h 51mn
Bit rate : 4 656 Kbps
Width : 1 280 pixels
Height : 720 pixels
Display aspect ratio : 16:9
Frame rate mode : Constant
Frame rate : 23.976 fps
Color space : YUV
Chroma subsampling : 4:2:0
Bit depth : 8 bits
Scan type : Progressive
Bits/(Pixel*Frame) : 0.211
Stream size : 3.63 GiB (76%)
Title : Release for HDCLUB
Writing library : x264 core 119 r2106 07efeb4
Encoding settings : cabac=1 / ref=9 / deblock=1:-3:-3 / analyse=0x3:0x133 / me=umh / subme=9 / psy=1 / psy_rd=1.00:0.00 / mixed_ref=1 / me_range=32 / chroma_me=1 / trellis=2 / 8x8dct=1 / cqm=0 / deadzone=21,11 / fast_pskip=0 / chroma_qp_offset=-2 / threads=8 / sliced_threads=0 / nr=0 / decimate=0 / interlaced=0 / bluray_compat=0 / constrained_intra=0 / bframes=7 / b_pyramid=2 / b_adapt=2 / b_bias=0 / direct=3 / weightb=1 / open_gop=0 / weightp=2 / keyint=250 / keyint_min=23 / scenecut=40 / intra_refresh=0 / rc=crf / mbtree=0 / crf=17.0 / qcomp=0.60 / qpmin=10 / qpmax=51 / qpstep=4 / ip_ratio=1.40 / pb_ratio=1.30 / aq=1:1.00
Language : English
Default : Yes
Forced : No

Audio #1
ID : 2
Format : AC-3
Format/Info : Audio Coding 3
Mode extension : CM (complete main)
Format settings, Endianness : Big
Codec ID : A_AC3
Duration : 1h 51mn
Bit rate mode : Constant
Bit rate : 384 Kbps
Channel(s) : 6 channels
Channel positions : Front: L C R, Side: L R, LFE
Sampling rate : 48.0 KHz
Bit depth : 16 bits
Compression mode : Lossy
Stream size : 307 MiB (6%)
Title : DVO NTV+
Language : Russian
Default : No
Forced : Yes

Audio #2
ID : 3
Format : AC-3
Format/Info : Audio Coding 3
Mode extension : CM (complete main)
Format settings, Endianness : Big
Codec ID : A_AC3
Duration : 1h 51mn
Bit rate mode : Constant
Bit rate : 192 Kbps
Channel(s) : 2 channels
Channel positions : Front: L R
Sampling rate : 48.0 KHz
Bit depth : 16 bits
Compression mode : Lossy
Stream size : 153 MiB (3%)
Title : DVO VHS
Language : Russian
Default : No
Forced : No

Audio #3
ID : 4
Format : AC-3
Format/Info : Audio Coding 3
Mode extension : CM (complete main)
Format settings, Endianness : Big
Codec ID : A_AC3
Duration : 1h 51mn
Bit rate mode : Constant
Bit rate : 384 Kbps
Channel(s) : 6 channels
Channel positions : Front: L C R, Side: L R, LFE
Sampling rate : 48.0 KHz
Bit depth : 16 bits
Compression mode : Lossy
Stream size : 307 MiB (6%)
Title : Karcev
Language : Russian
Default : No
Forced : No

Audio #4
ID : 5
Format : AC-3
Format/Info : Audio Coding 3
Mode extension : CM (complete main)
Format settings, Endianness : Big
Codec ID : A_AC3
Duration : 1h 51mn
Bit rate mode : Constant
Bit rate : 384 Kbps
Channel(s) : 2 channels
Channel(s)_Original : 6 channels
Channel positions : Front: L C R, Side: L R, LFE
Sampling rate : 48.0 KHz
Bit depth : 16 bits
Compression mode : Lossy
Delay relative to video : 22ms
Stream size : 307 MiB (6%)
Title : Eng
Language : English
Default : No
Forced : No

Text #1
ID : 6
Format : UTF-8
Codec ID : S_TEXT/UTF8
Codec ID/Info : UTF-8 Plain Text
Title : Rus
Language : Russian
Default : No
Forced : No

Text #2
ID : 7
Format : UTF-8
Codec ID : S_TEXT/UTF8
Codec ID/Info : UTF-8 Plain Text
Title : Eng
Language : English
Default : No
Forced : No

pb.wtf



Скачать Пудра через торрент http://pic.kartinco.top/img/2014-11/06/2gilxjp1knws2yhfrbaznxelu.jpg Скачать фильм Пудра через торрент бесплантно в хорошем качестве Описание: «Пудра» - это странное прозвище ученики дают своему новому однокласснику Джереми. Сверстники пугаются его необычной внешности, ... 9.2 10 6
Info! Серебряная раздача, засчитывается только 50% скачанного.
Торрент: Зарегистрирован [2014-11-06 08:21] · скачан: 63 раз
Статус: √ проверено
Размер: 4.77 GB
Как cкачать? Как скачать Пудра через торрент | qTorrent

28-11-2019 20:33  

Отключить всю рекламу на сайте

    Дорогой пользователь! Огромная просьба, поблагодарите релизера, оцените раздачу и оставьте свои комментарий, если Вы скачали Пудра через торрент бесплатно! Внесите свою лепту в развитие PiratBit!
    Комментировать посты могут только пользователи прошедшие не сложную регистрацию
    Показать сообщения:    

    Пудра через торрент
    Скачать бесплатно Пудра
    Пудра скачать торрент
    Пудра смотреть онлайн
    Cкачать фильм Пудра бесплатно
    Пудра скачать торрент в хорошем качестве
    Пудра смотреть онлайн бесплатно в хорошем качестве


    Вы не можете начинать темы
    Вы не можете отвечать на сообщения
    Вы не можете редактировать свои сообщения
    Вы не можете удалять свои сообщения
    Вы не можете голосовать в опросах
    Вы не можете прикреплять файлы к сообщениям
    Вы можете скачивать файлы