Ссылка на приватное зеркало нашего сайта всего за 1$. Внимание количество ограничено!!!

2 сезон

iTunes

1 сезон

1

iTunes

iTunes

iTunes

1 сезон

RePack

30

ИГРА 18+

pack

ВАЖНО

!!Акция!!

Alien_RageХит недели

RePack

MK11
pack

Забери бонус

RePack

jed

!!Акция!!

Alien_Rage

RePack

fifa19

RePack

Assassins Creed: Odyssey

RePack

NEED FOR SPEED™ PAYBACK

4 сезон

9 сезон

Бесстыжие 9 сезон

Все сериалы

все сериалы на PB.wtf

RePack

FAR CRY 5
  

Отрочество / Boyhood (Ричард Линклейтер ) [2014, драма, BDRip 1080p, Дубляж] / Чистый звук от R.G. HD-Films pb.wtf

Отрочество через торрент pb.wtf

Размер: 9.82 GB | Добавлен: 5 лет 11 мес. назад | Торрент скачан:585 раз
Скачать  

06-11-2014 10:00 Отрочество Скачать торрент  

Отрочество / Boyhood
«12 years in the making»

Год выпуска: 2014
Страна: США
Жанр:драма
Продолжительность:02:45:38
Перевод:Дубляж - [Чистый звук]
Субтитры: русские, русские (notabenoid)
Режиссер:Ричард Линклейтер

  • В ролях:

    Эллар Колтрейн (Mason), Итан Хоук (Dad), Патриция Аркетт (Mom), Элайджа Смит (Tommy), Лорелей Линклэйтер (Samantha), Стивен Честер Принц (Ted), Бонни Кросс (Teacher), Сидни Орта (Elementary School Girl), Либби Виллари (Grandma), Марко Перелья (Professor Bill Welbrock), Джэми Ховард (Mindy), Эндрю Вилларриал (Randy)

  • Описание:
    Многолетний проект позволит проследить развитие реального человека с момента рождения. Уникальный шанс увидеть год за годом взросление ребенка, жизнь его родителей и изменения окружающего мира в целом.

  • Мировая премьера:19 января 2014

    Качество: BDRip 1080p
    Формат:MKV
    Видео кодек: AVC
    Аудио кодек:AC3
    Видео: AVC, 1920x1040 (16:9), 8108 kbps, 23,976 fps, 0,169 bpp
    Аудио: русский / AC3 / 2.0 / 48 kHz / 384 kbps / 16 bit ||
    Навигация по главам: есть


    Код:

    General
    Unique ID                                : 211495326295906961016215030436968341893 (0x9F1C84A8D42EC81A9C5BD20CDA452185)
    Complete name                            : D:\Торенты\Boyhood.2014.Blu.Ray.1080p._Release for Piratbit.net_R.G. HD-Films.mkv
    Format                                   : Matroska
    Format version                           : Version 4 / Version 2
    File size                                : 9.82 GiB
    Duration                                 : 2h 45mn
    Overall bit rate                         : 8 488 Kbps
    Movie name                               : _Release for Piratbit.net_R.G. HD-Films
    Encoded date                             : UTC 2014-11-06 09:37:27
    Writing application                      : mkvmerge v7.3.0 ('Nouages') 64bit built on Oct 22 2014 18:53:34
    Writing library                          : libebml v1.3.0 + libmatroska v1.4.1
    DURATION                                 : 02:45:38.336000000
    NUMBER_OF_FRAMES                         : 310573
    NUMBER_OF_BYTES                          : 477040128
    _STATISTICS_WRITING_APP                  : mkvmerge v7.3.0 ('Nouages') 64bit built on Oct 22 2014 18:53:34
    _STATISTICS_WRITING_DATE_UTC             : 2014-11-06 09:37:27
    _STATISTICS_TAGS                         : BPS DURATION NUMBER_OF_FRAMES NUMBER_OF_BYTES
    Attachment                               : Yes

    Video
    ID                                       : 1
    Format                                   : AVC
    Format/Info                              : Advanced Video Codec
    Format profile                           : High@L4.1
    Format settings, CABAC                   : Yes
    Format settings, ReFrames                : 4 frames
    Codec ID                                 : V_MPEG4/ISO/AVC
    Duration                                 : 2h 45mn
    Bit rate                                 : 8 108 Kbps
    Width                                    : 1 920 pixels
    Height                                   : 1 040 pixels
    Display aspect ratio                     : 16:9
    Frame rate                               : 23.976 fps
    Color space                              : YUV
    Chroma subsampling                       : 4:2:0
    Bit depth                                : 8 bits
    Scan type                                : Progressive
    Bits/(Pixel*Frame)                       : 0.169
    Stream size                              : 9.18 GiB (93%)
    Title                                    : _Release for Piratbit.net_R.G. HD-Films
    Writing library                          : x264 core 142 r2479 dd79a61
    Encoding settings                        : cabac=1 / ref=4 / deblock=1:-1:-1 / analyse=0x3:0x133 / me=umh / subme=7 / psy=1 / psy_rd=1.00:0.15 / mixed_ref=1 / me_range=16 / chroma_me=1 / trellis=1 / 8x8dct=1 / cqm=0 / deadzone=21,11 / fast_pskip=0 / chroma_qp_offset=-2 / threads=12 / lookahead_threads=2 / sliced_threads=0 / nr=0 / decimate=1 / interlaced=0 / bluray_compat=0 / constrained_intra=0 / bframes=3 / b_pyramid=2 / b_adapt=1 / b_bias=0 / direct=1 / weightb=1 / open_gop=0 / weightp=2 / keyint=240 / keyint_min=23 / scenecut=40 / intra_refresh=0 / rc_lookahead=40 / rc=2pass / mbtree=1 / bitrate=8108 / ratetol=1.0 / qcomp=0.60 / qpmin=10 / qpmax=69 / qpstep=4 / cplxblur=20.0 / qblur=0.5 / ip_ratio=1.40 / aq=1:1.00
    Language                                 : Russian
    Default                                  : Yes
    Forced                                   : No
    DURATION                                 : 02:45:38.387000000
    NUMBER_OF_FRAMES                         : 238283
    NUMBER_OF_BYTES                          : 10065054299
    _STATISTICS_WRITING_APP                  : mkvmerge v7.3.0 ('Nouages') 64bit built on Oct 22 2014 18:53:34
    _STATISTICS_WRITING_DATE_UTC             : 2014-11-06 09:37:27
    _STATISTICS_TAGS                         : BPS DURATION NUMBER_OF_FRAMES NUMBER_OF_BYTES

    Audio
    ID                                       : 2
    Format                                   : AC-3
    Format/Info                              : Audio Coding 3
    Mode extension                           : CM (complete main)
    Codec ID                                 : A_AC3
    Duration                                 : 2h 45mn
    Bit rate mode                            : Constant
    Bit rate                                 : 384 Kbps
    Channel(s)                               : 2 channels
    Channel positions                        : Front: L R
    Sampling rate                            : 48.0 KHz
    Bit depth                                : 16 bits
    Compression mode                         : Lossy
    Stream size                              : 455 MiB (5%)
    Title                                    : Дубляж чистый звук
    Language                                 : Russian
    Default                                  : Yes
    Forced                                   : No

    Text #1
    ID                                       : 3
    Format                                   : UTF-8
    Codec ID                                 : S_TEXT/UTF8
    Codec ID/Info                            : UTF-8 Plain Text
    Language                                 : Russian
    Default                                  : No
    Forced                                   : No

    Text #2
    ID                                       : 4
    Format                                   : UTF-8
    Codec ID                                 : S_TEXT/UTF8
    Codec ID/Info                            : UTF-8 Plain Text
    Title                                    : notabenoid
    Language                                 : Russian
    Default                                  : No
    Forced                                   : No

    Menu
    00:00:00.000                             : en:00:00:00.000
    00:08:52.949                             : en:00:08:52.949
    00:15:59.292                             : en:00:15:59.292
    00:25:01.917                             : en:00:25:01.917
    00:34:56.636                             : en:00:34:56.636
    00:44:47.351                             : en:00:44:47.351
    00:52:26.060                             : en:00:52:26.060
    00:59:31.109                             : en:00:59:31.109
    01:07:36.719                             : en:01:07:36.719
    01:12:25.550                             : en:01:12:25.550
    01:22:55.554                             : en:01:22:55.554
    01:31:25.772                             : en:01:31:25.772
    01:42:00.656                             : en:01:42:00.656
    01:49:05.539                             : en:01:49:05.539
    01:54:18.769                             : en:01:54:18.769
    02:00:53.538                             : en:02:00:53.538
    02:11:11.572                             : en:02:11:11.572
    02:23:06.411                             : en:02:23:06.411
    02:30:44.994                             : en:02:30:44.994
    02:39:58.798                             : en:02:39:58.798

    Скриншоты:

    Релиз подготовлен специально для Piratbit.net. by Raven
    pb.wtf



  • Скачать Отрочество через торрент http://i63.fastpic.ru/big/2014/1106/89/07a30c073d4080e4647dc749878db189.jpg Скачать фильм Отрочество через торрент бесплантно в хорошем качестве Описание:Многолетний проект позволит проследить развитие реального человека с момента рождения. Уникальный шанс увидеть год за годом ... 9.4 10 18
    Info! Золотая раздача, скачанное не засчитывается.
    Торрент: Зарегистрирован [2014-11-06 10:02] · скачан: 585 раз
    Статус: T временная
    Размер: 9.82 GB
    Как cкачать? Как скачать Отрочество через торрент | qTorrent

    28-11-2019 20:33  

    Отключить всю рекламу на сайте

    06-11-2014 11:48 Отрочество Скачать торрент  

    Вот нахрена такой шрифт ставить?Ваще непонятно!!pb.wtf



    06-11-2014 11:53 Отрочество Скачать торрент  

    Homofox, А какой лучше? и уточните в теме или в самих комментариях ?pb.wtf



    08-11-2014 19:08 Отрочество Скачать торрент  

    Думаю не стоит обращать внимание на вот "таких" людей, не буду писать тут матом, шрифт понимаете ли ему не нравится ********.pb.wtf



      Дорогой пользователь! Огромная просьба, поблагодарите релизера, оцените раздачу и оставьте свои комментарий, если Вы скачали Отрочество через торрент бесплатно! Внесите свою лепту в развитие PiratBit!
      Комментировать посты могут только пользователи прошедшие не сложную регистрацию
      Показать сообщения:    

      Отрочество через торрент
      Скачать бесплатно Отрочество
      Отрочество скачать торрент
      Отрочество смотреть онлайн
      Cкачать фильм Отрочество бесплатно
      Отрочество скачать торрент в хорошем качестве
      Отрочество смотреть онлайн бесплатно в хорошем качестве


      Вы не можете начинать темы
      Вы не можете отвечать на сообщения
      Вы не можете редактировать свои сообщения
      Вы не можете удалять свои сообщения
      Вы не можете голосовать в опросах
      Вы не можете прикреплять файлы к сообщениям
      Вы можете скачивать файлы