Ссылка на приватное зеркало нашего сайта всего за 1$. Внимание количество ограничено!!!

2 сезон

iTunes

1 сезон

1

2 сезон

2 сезон

iTunes

1 сезон

RePack

30

Новинка

ВАЖНО

ИГРА 18+

pack

RePack

MK11
pack

Забери бонус

RePack

jed

!!Акция!!

Alien_Rage

RePack

fifa19

RePack

Assassins Creed: Odyssey

RePack

NEED FOR SPEED™ PAYBACK

4 сезон

9 сезон

Бесстыжие 9 сезон

Все сериалы

все сериалы на PB.wtf

RePack

FAR CRY 5
  

Добро пожаловать в Дарем / Durham County (Холли Дэйл, Эдриэнн Митчел) / Сезон: 1 / Серии: 1-6 из 6 [2007 г., драма, триллер, DVDRip] VO (KGJ) pb.wtf

Добро пожаловать в Дарем через торрент pb.wtf

Размер: 2.44 GB | Добавлен: 6 лет назад | Торрент скачан:53 раза
Скачать  

06-11-2014 15:09 Добро пожаловать в Дарем Скачать торрент  

Добро пожаловать в Дарем / Durham County
Кто-то сказал, что между тобой и любым человеком на Земле всего шестеро. Но иногда это не так.
Иногда самое страшное зло уже в твоем мире... Иногда оно живет через улицу...

Год выпуска: 2009
Страна: Канада
Жанр: боевик, триллер, драма, криминал, детектив
Продолжительность: ~ 00.57.00
Перевод: Любительский одноголосый (KGJ)

Режиссер: Холли Дэйл, Эдриэнн Митчел



В ролях: Хью Диллон, Хелен Джой, Лоранс Лебёф, Грейстон Холт, Сисели Остин, Патрик Лаббе, Клаудиа Ферри, Соня Саломяа, Майкл Нардон, Луис Феррейра

Описание: История о полицейском Майкле Суини, который возвращается вместе с семьей в графство Дарем после смерти своего напарника. На новой работе в убойном отделе он оказывается сразу втянут в расследование исчезновения двух 18-летних девушек. И его подозрения все больше сходятся на его новом соседе, человеке, с которым у Майкла были не простые отношения еще в колледже.

Доп. информация:
Перевод: Solvex
Редактура: Sienna
Озвучка: KGJ
Монтаж и сведение звука: ПИРАТ

Качество: DVDRip
Формат: AVI
Видео кодек: XviD
Аудио кодек: MP3
Видео: 624x352 (1.77:1), 23.976 fps, ~883 kbps avg, 0.17 bit/pixel
Аудио#1: Ru 48 kHz,, 2 ch, ~192.00 kbps avg
Аудио#2: En 48 kHz, 2 ch, ~133.24 kbps avg
ВНИМАНИЕ! Сериал содержит жестокие сцены и нецензурную лексику!
зрителям, достигшим 18 лет
скриншот   скриншот   скриншот   скриншот   скриншот  





General
Complete name : F:\Округ Дарем Durham County\Durham_County_серии1-6_DVDRip_RUS[torrents.ru]\Durham_County_s01e01_DVDRip_RUS.avi
Format : AVI
Format/Info : Audio Video Interleave
File size : 417 MiB
Duration : 47mn 32s
Overall bit rate mode : Variable
Overall bit rate : 1 227 Kbps
Writing application : VirtualDubModRus 1.5.10.2 (build 2540/release)
Writing library : VirtualDubMod build 2540/release

Video
ID : 0
Format : MPEG-4 Visual
Format profile : Advanced Simple@L5
Format settings, BVOP : 2
Format settings, QPel : No
Format settings, GMC : No warppoints
Format settings, Matrix : Default (H.263)
Muxing mode : Packed bitstream
Codec ID : XVID
Codec ID/Hint : XviD
Duration : 47mn 32s
Bit rate : 885 Kbps
Width : 624 pixels
Height : 352 pixels
Display aspect ratio : 16:9
Frame rate : 23.976 fps
Color space : YUV
Chroma subsampling : 4:2:0
Bit depth : 8 bits
Scan type : Progressive
Compression mode : Lossy
Bits/(Pixel*Frame) : 0.168
Stream size : 301 MiB (72%)
Writing library : XviD 1.2.0SMP (UTC 2006-01-08)

Audio #1
ID : 1
Format : MPEG Audio
Format version : Version 1
Format profile : Layer 3
Codec ID : 55
Codec ID/Hint : MP3
Duration : 47mn 32s
Bit rate mode : Constant
Bit rate : 192 Kbps
Channel(s) : 2 channels
Sampling rate : 48.0 KHz
Compression mode : Lossy
Stream size : 65.3 MiB (16%)
Alignment : Aligned on interleaves
Interleave, duration : 42 ms (1.00 video frame)
Interleave, preload duration : 504 ms
Writing library : LAME3.92
Encoding settings : -m s -V 4 -q 2 -lowpass 18.7 -b 192

Audio #2
ID : 2
Format : MPEG Audio
Format version : Version 1
Format profile : Layer 3
Mode : Joint stereo
Mode extension : MS Stereo
Codec ID : 55
Codec ID/Hint : MP3
Duration : 47mn 32s
Bit rate mode : Variable
Bit rate : 128 Kbps
Channel(s) : 2 channels
Sampling rate : 48.0 KHz
Compression mode : Lossy
Stream size : 45.3 MiB (11%)
Alignment : Aligned on interleaves
Interleave, duration : 24 ms (0.58 video frame)
Interleave, preload duration : 138 ms
Writing library : LAME3.96r
Encoding settings : -m j -V 4 -q 3 -lowpass 17.5 --abr 128


Добро пожаловать в Дарем скачать торрент


pb.wtf



Скачать Добро пожаловать в Дарем через торрент http://pic.kartinco.top/img/2014-11/06/kuog6qxt7elu6cty7s26xq1mz.jpg Скачать фильм Добро пожаловать в Дарем через торрент бесплантно в хорошем качестве Описание: История о полицейском Майкле Суини, который возвращается вместе с семьей в графство Дарем после смерти своего напарника. На новой ... 10 10 1
Торрент: Зарегистрирован [2014-11-06 15:09] · скачан: 53 раз
Статус: √ проверено
Размер: 2.44 GB
Как cкачать? Как скачать Добро пожаловать в Дарем через торрент | qTorrent

% Раздел Тема Автор DL S | L
Зарубежные сериалы [ 3.64 GB ] Добро пожаловать в Дарем / Durham County / Сезон: 3 / Серии: 1-6 [2010 DVDRip] DVO Assasinca Скачать
1 | 0
Зарубежные сериалы [ 3.63 GB ] Добро пожаловать в Дарем / Durham County / Сезон: 2 / Серии: 1-6 [2009 DVDRip] DVO Assasinca Скачать
1 | 0

28-11-2019 20:33  

Отключить всю рекламу на сайте

    Дорогой пользователь! Огромная просьба, поблагодарите релизера, оцените раздачу и оставьте свои комментарий, если Вы скачали Добро пожаловать в Дарем через торрент бесплатно! Внесите свою лепту в развитие PiratBit!
    Комментировать посты могут только пользователи прошедшие не сложную регистрацию
    Показать сообщения:    

    Добро пожаловать в Дарем через торрент
    Скачать бесплатно Добро пожаловать в Дарем
    Добро пожаловать в Дарем скачать торрент
    Добро пожаловать в Дарем смотреть онлайн
    Cкачать фильм Добро пожаловать в Дарем бесплатно
    Добро пожаловать в Дарем скачать торрент в хорошем качестве
    Добро пожаловать в Дарем смотреть онлайн бесплатно в хорошем качестве


    Вы не можете начинать темы
    Вы не можете отвечать на сообщения
    Вы не можете редактировать свои сообщения
    Вы не можете удалять свои сообщения
    Вы не можете голосовать в опросах
    Вы не можете прикреплять файлы к сообщениям
    Вы можете скачивать файлы