Ссылка на приватное зеркало нашего сайта всего за 1$. Внимание количество ограничено!!!

2 сезон

iTunes

1 сезон

1

2 сезон

2 сезон

iTunes

1 сезон

RePack

30

Ultimate

ВАЖНО

ИГРА 18+

pack

RePack

MK11
pack

Забери бонус

RePack

jed

!!Акция!!

Alien_Rage

RePack

fifa19

RePack

Assassins Creed: Odyssey

RePack

NEED FOR SPEED™ PAYBACK

4 сезон

9 сезон

Бесстыжие 9 сезон

Все сериалы

все сериалы на PB.wtf

RePack

FAR CRY 5
  

Добро пожаловать в Дарем / Durham County / Сезон: 2 / Серии: 1-6 (6) (Холли Дэйл, Эдриэнн Митчел) [2009, драма, триллер, DVDRip] DVO (Gravi-TV) pb.wtf

Добро пожаловать в Дарем через торрент pb.wtf

Размер: 3.63 GB | Добавлен: 6 лет назад | Торрент скачан:30 раз
Скачать  

06-11-2014 15:40 Добро пожаловать в Дарем Скачать торрент  

Добро пожаловать в Дарем / Durham County
Год выпуска: 2009
Страна: Канада
Жанр: боевик, триллер, драма, криминал, детектив
Продолжительность: 00:57:00
Перевод: Любительский двухголосый (Gravi-TV)
Субтитры: Русские, русские форсированные (на песни, звучащие в эпизоде)

Режиссер: Холли Дэйл, Эдриэнн Митчел



В ролях: Хью Диллон, Хелен Джой, Лоранс Лебёф, Грейстон Холт, Соня Саломяа, Мишель Форбс, Джастин Луис, Патрик Лаббе, Кэтлин Манро, Сисели Остин,
Майк Допуд

Описание: Не так уж много времени минуло с тех пор, как Дарем всколыхнула волна жутких убийств. Детектив Майк Суини и его семья тогда оказались в самом эпицентре кровавых событий. Теперь Майк, получивший повышение, вовлечён в новое расследование, но и не забыт своим старым "другом" Рэем Прэйгером, который в ожидании суда томится за решёткой под присмотром судебных психиатров.
Жёсткий атмосферный триллер снова на ваших экранах. Тот же город, только тайны его - ещё мрачнее.

ВНИМАНИЕ: в сериале присутствуют откровенные сцены, сцены жестокости и насилия, нецензурная брань и мат.
Над релизом работали:
перевод и редакция: veretskiy
озвучивание: Murzilka & Snugrik
монтаж и сведение звука: veryserg

Качество: DVDRip
Формат: AVI
Видео кодек: XviD
Аудио кодек: AC3
Видео: 624x352 (1.77:1), 25 fps, 1108 kbps avg, 0.20 bit/pixel
Аудио#1: 48 kHz, Dolby Digital, 2/0 (L,R) ch, 192 kbps [RUS] Gravi-TV
Аудио#2: 48 kHz, AC3 Dolby Digital, 2/0 (L,R) ch, 224 kbps [ENG]
скриншот   скриншот   скриншот   скриншот   скриншот  





General
Complete name : F:\Округ Дарем Durham County\Durham County 2\Durham.County.s02e01.Little.Lost.Children.[Gravi-TV].avi
Format : AVI
Format/Info : Audio Video Interleave
File size : 630 MiB
Duration : 57mn 11s
Overall bit rate : 1 540 Kbps
Writing application : VirtualDubMod 1.5.10.1 (build 2366/release)
Writing library : VirtualDubMod build 2366/release

Video
ID : 0
Format : MPEG-4 Visual
Format profile : Advanced Simple@L5
Format settings, BVOP : 2
Format settings, QPel : No
Format settings, GMC : No warppoints
Format settings, Matrix : Default (MPEG)
Codec ID : XVID
Codec ID/Hint : XviD
Duration : 57mn 11s
Bit rate : 1 109 Kbps
Width : 624 pixels
Height : 352 pixels
Display aspect ratio : 16:9
Frame rate : 25.000 fps
Color space : YUV
Chroma subsampling : 4:2:0
Bit depth : 8 bits
Scan type : Progressive
Compression mode : Lossy
Bits/(Pixel*Frame) : 0.202
Stream size : 454 MiB (72%)
Writing library : XviD 1.2.1 (UTC 2008-12-04)

Audio #1
ID : 1
Format : AC-3
Format/Info : Audio Coding 3
Mode extension : CM (complete main)
Format settings, Endianness : Big
Codec ID : 2000
Duration : 57mn 11s
Bit rate mode : Constant
Bit rate : 192 Kbps
Channel(s) : 2 channels
Channel positions : Front: L R
Sampling rate : 48.0 KHz
Bit depth : 16 bits
Compression mode : Lossy
Stream size : 78.5 MiB (12%)
Alignment : Split accross interleaves
Interleave, duration : 40 ms (1.00 video frame)
Interleave, preload duration : 500 ms

Audio #2
ID : 2
Format : AC-3
Format/Info : Audio Coding 3
Mode extension : CM (complete main)
Format settings, Endianness : Big
Codec ID : 2000
Duration : 57mn 11s
Bit rate mode : Constant
Bit rate : 224 Kbps
Channel(s) : 2 channels
Channel positions : Front: L R
Sampling rate : 48.0 KHz
Bit depth : 16 bits
Compression mode : Lossy
Stream size : 91.6 MiB (15%)
Alignment : Split accross interleaves
Interleave, duration : 40 ms (1.00 video frame)
Interleave, preload duration : 500 ms


Добро пожаловать в Дарем скачать торрент


pb.wtf



Скачать Добро пожаловать в Дарем через торрент http://www.multserial.ru/multserial_images/product/14720b.jpg Скачать фильм Добро пожаловать в Дарем через торрент бесплантно в хорошем качестве Описание: Не так уж много времени минуло с тех пор, как Дарем всколыхнула волна жутких убийств. Детектив Майк Суини и его семья тогда ... 7.5 10 2
Торрент: Зарегистрирован [2014-11-06 15:40] · скачан: 30 раз
Статус: √ проверено
Размер: 3.63 GB
Как cкачать? Как скачать Добро пожаловать в Дарем через торрент | qTorrent

28-11-2019 20:33  

Отключить всю рекламу на сайте

    Дорогой пользователь! Огромная просьба, поблагодарите релизера, оцените раздачу и оставьте свои комментарий, если Вы скачали Добро пожаловать в Дарем через торрент бесплатно! Внесите свою лепту в развитие PiratBit!
    Комментировать посты могут только пользователи прошедшие не сложную регистрацию
    Показать сообщения:    

    Добро пожаловать в Дарем через торрент
    Скачать бесплатно Добро пожаловать в Дарем
    Добро пожаловать в Дарем скачать торрент
    Добро пожаловать в Дарем смотреть онлайн
    Cкачать фильм Добро пожаловать в Дарем бесплатно
    Добро пожаловать в Дарем скачать торрент в хорошем качестве
    Добро пожаловать в Дарем смотреть онлайн бесплатно в хорошем качестве


    Вы не можете начинать темы
    Вы не можете отвечать на сообщения
    Вы не можете редактировать свои сообщения
    Вы не можете удалять свои сообщения
    Вы не можете голосовать в опросах
    Вы не можете прикреплять файлы к сообщениям
    Вы можете скачивать файлы